Today is a free download without charge Download

Приключения поросенка Фунтика (Неуловимый Фунтик, Фунтик и сыщики, Фунтик и старушка с усами, Фунтик в цирке) (Анатолий Солин) [1986-1988 г., мультфильм, DVB]

Reply to topic
 
Author
Message

Omen ®

Longevity: 7 years 11 months

Posts: 181087

Торрент-статистика

Post 18-Aug-2013 04:45

[Quote]

Приключения поросенка Фунтика
Жанр: мультфильм
Год выпуска: 1986-1988
Продолжительность: 00:10:10 + 00:10:01 + 00:09:54 + 00:09:16
Режиссёр: Анатолий Солин
Описание: мультфильм о том, как поросенок Фунтик сбегает от своей хозяйки, госпожи Беладонны, злой и жадной хозяйки универмага «Слеза ребенка», потому что не хочет обманывать детей и ложью выманивать у них деньги для Беладонны. Хозяйка начинает безжалостно преследовать поросенка, который мог приносить ей неплохой доход. Ей помогают тупой начальник полиции Фокстрот и суетливые сыщики Добер и Пинчер. Но Фунтик случайно встречает в лесу дядюшку Мокуса и Бамбино - циркачей и отправляется с ними в путешествие навстречу новой жизни ...
1. "Неуловимый Фунтик. 1 серия" 1986г
2. "Фунтик и сыщики. 2 серия" 1986г.
3. "Фунтик и старушка с усами. 3 серия" 1987г.
4. "Фунтик в цирке. 4 серия" 1988г.
Доп. информация:

Качество видео: DVB
Формат видео: MPEG-PS
Видео: MPEG2 Video, 720x576, 25 fps, 3600 kbps
Аудио: MPEG Audio, 2 сh, 48 kHz, 192 kbps

MediaInfo

D:\Приключения Фунтика\1c. Неуловимый Фунтик (1986)_DVB by SLuMeP.mpg
General
Complete name : D:\Приключения Фунтика\1c. Неуловимый Фунтик (1986)_DVB by SLuMeP.mpg
Format : MPEG-PS
File size : 281 MiB
Duration : 10mn 10s
Overall bit rate mode : Variable
Overall bit rate : 3 863 Kbps
Writing library : (c) 1998-2010 Womble Multimedia, Inc. / MPEG Video Wizard DVD 5.0.0.114 (01/2010) / Apr 20 2010
Video #224
ID : 224 (0xE0)
Format : MPEG Video
Format version : Version 2
Format profile : [email protected]
Format settings, BVOP : Yes
Format settings, Matrix : Custom
Duration : 10mn 10s
Bit rate mode : Variable
Bit rate : 3 594 Kbps
Maximum bit rate : 5 000 Kbps
Width : 720 pixels
Height : 576 pixels
Display aspect ratio : 4:3
Frame rate : 25.000 fps
Standard : PAL
Color space : YUV
Chroma subsampling : 4:2:0
Bit depth : 8 bits
Scan type : Interlaced
Scan order : Top Field First
Compression mode : Lossy
Bits/(Pixel*Frame) : 0.347
Stream size : 261 MiB (93%)
Writing library : (c) 1998-2010 Womble Multimedia, Inc. / MPEG Video Wizard DVD 5.0.0.114 (01/2010) / Apr 20 2010
Audio #192
ID : 192 (0xC0)
Format : MPEG Audio
Format version : Version 1
Format profile : Layer 2
Duration : 10mn 10s
Bit rate mode : Constant
Bit rate : 192 Kbps
Channel(s) : 2 channels
Sampling rate : 48.0 KHz
Compression mode : Lossy
Stream size : 14.0 MiB (5%)
Menu
Other forum [Profile] [PM]
Similar theme
Forum Topic Author Torrent Replies Last Post
./templates/default/images/folder_dl.gif Фильмы 2001-2010 Невероятная жизнь Уолтера Митти / The Secret Life of Walter Mitty (Бен Стиллер / Ben Stiller, 2013, Приключения, мелодрама, драма, комедия, фэнтези) WEB-DL [H.264/1080p-LQ] Omen
1 | 0

0 | 936

36

2014-03-26 22:37
Omen Latest
./templates/default/images/folder_dl.gif Историческая литература Андрей Болотов | Жизнь и приключения Андрея Болотова, описанныя самим им для своих потомков. Том 1-3 (2013) [PDF] Omen
1 | 0

0 | 2294

6

2015-01-01 15:06
Omen Latest
./templates/default/images/folder_dl.gif Обучающее видео Учебный центр 1C | Использование прикладного решения 1С Розница 8.2 Редакция 2 (2015) PCRec Varius
1 | 0

0 | 2526

44

2015-07-16 05:16
Varius Latest
./templates/default/images/folder_dl.gif Зарубежные сериалы Игра престолов / Game of Thrones / Сезон: 8 / Серии: 1-6 из 6 (Алан Тейлор / Alan Taylor) [2019, фэнтези, боевик, драма, мелодрама, приключения, WEB-DL 1080p] MVO (Amedia / Новамедиа) + Original + Sub (Rus, Eng) ¶ }{@R0N
1 | 0

0 | 1889

0

2019-05-20 12:02
}{@R0N Latest
./templates/default/images/folder_dl.gif Фильмы 2011-2020 К звёздам / Ad Astra (Джеймс Грэй) [2019, фантастика, триллер, драма, детектив, приключения, HDRip-AVC] [DUB] [iTunes] Орлов Владимир
1 | 0

0 | 517

2

2019-12-07 08:01
Орлов Владимир Latest
./templates/default/images/folder_dl.gif Фильмы 2011-2020 Терминатор: Тёмные судьбы / Terminator: Dark Fate (Тим Миллер) [2019, Фантастика, боевик, приключения, BDRip-AVC] [DUB] [iTunes] Орлов Владимир
1 | 0

0 | 665

1

2020-01-31 08:50
Орлов Владимир Latest
./templates/default/images/folder_dl.gif Фильмы 2011-2020 Фиксики против кработов (Василий Бедошвили, Олег Ужинов, Иван Пшонкин) [2019 г., приключения, музыка, мультфильм, WEB-DLRip] kilmister777
1 | 0

0 | 686

3

2020-02-05 13:57
kilmister777 Latest
./templates/default/images/folder_dl.gif Новинки (HD|DVD|BD|WEB|TV|SAT|PDTV|-Rip) Смотри как я (Егор Сальников) [2020 г., комедия, приключения, WEB-DLRip] iTunes kilmister777
1 | 0

0 | 1112

0

2020-09-27 14:17
kilmister777 Latest
./templates/default/images/folder_dl.gif Архив Любовь и монстры / Love and Monsters (Майкл Мэтьюз) [2020 г., комедия, фантастика, боевик, приключения, WEB-DL 1080p] MVO (@[email protected]) БАНДИТ
1 | 0

1 | 482

0

2020-10-21 10:53
Dracula Latest
Display posts from previous:    
Reply to topic

The time now is: Today 20:07

All times are GMT + 3 Hours



You cannot post new topics in this forum
You cannot reply to topics in this forum
You cannot edit your posts in this forum
You cannot delete your posts in this forum
You cannot vote in polls in this forum
You cannot attach files in this forum
You cannot download files in this forum