Today is a free download without charge Download

Трям! Здравствуйте! / Зимняя сказка / Осенние корабли / Удивительная бочка (Юрий Бутырин) [1980-1983 г., рисованный мультфильм, DVB]

Reply to topic
 
Author
Message

Omen ®

Longevity: 7 years 11 months

Posts: 181087

Торрент-статистика

Post 18-Aug-2013 04:45

[Quote]

Трям! Здравствуйте! / Зимняя сказка / Осенние корабли / Удивительная бочка
Жанр: рисованный мультфильм
Год выпуска: 1980-1983
Продолжительность: 00:08:31 + 00:09:18 + 00:08:25 + 00:08:46
Режиссёр: Юрий Бутырин
Описание: четыре мультфильма по сказкам Сергея Козлова про лесных друзей - Ёжика, Медвежонка, Зайца и других. Смешные и вместе с тем печальные истории повествуют о совсем простых вещах, без которых, как ни странно, не бывает чуда ...
1. "Трям! Здравствуйте!. 1 серия" 1980г - как Медвежонок подарил друзьям сказочную cтрану «Тилимилитрямдию»
2. "Зимняя сказка. 2 серия" 1981г. - как Медвежонок объелся снегом и проболел всю зиму, а Ёжик лечил своего друга и терпеливо ждал выздоровления
3. "Осенние корабли. 3 серия" 1982г. - про Ёжика, который мечтал о своём море и кораблях
4. "Удивительная бочка. 4 серия" 1983г. - весной Медвежонок вырастил бочку, чтобы наполнить её сладостями, а Ёжик превратил её в лошадку
Доп. информация:

Качество видео: DVB
Формат видео: MPEG-PS
Видео: MPEG2 Video, 720x576, 25 fps, 3600 kbps
Аудио: MPEG Audio, 2 сh, 48 kHz, 192 kbps

MediaInfo

D:\Трям. Здравствуйте\1c. Трям! Здравствуйте! (1980)_DVB by SLuMeP.mpg
General
Complete name : D:\Трям. Здравствуйте\1c. Трям! Здравствуйте! (1980)_DVB by SLuMeP.mpg
Format : MPEG-PS
File size : 238 MiB
Duration : 8mn 31s
Overall bit rate mode : Variable
Overall bit rate : 3 897 Kbps
Writing library : (c) 1998-2010 Womble Multimedia, Inc. / MPEG Video Wizard DVD 5.0.0.114 (01/2010) / Apr 20 2010
Video #224
ID : 224 (0xE0)
Format : MPEG Video
Format version : Version 2
Format profile : [email protected]
Format settings, BVOP : Yes
Format settings, Matrix : Custom
Duration : 8mn 31s
Bit rate mode : Variable
Bit rate : 3 627 Kbps
Maximum bit rate : 5 000 Kbps
Width : 720 pixels
Height : 576 pixels
Display aspect ratio : 4:3
Frame rate : 25.000 fps
Standard : PAL
Color space : YUV
Chroma subsampling : 4:2:0
Bit depth : 8 bits
Scan type : Interlaced
Scan order : Top Field First
Compression mode : Lossy
Bits/(Pixel*Frame) : 0.350
Stream size : 221 MiB (93%)
Writing library : (c) 1998-2010 Womble Multimedia, Inc. / MPEG Video Wizard DVD 5.0.0.114 (01/2010) / Apr 20 2010
Audio #192
ID : 192 (0xC0)
Format : MPEG Audio
Format version : Version 1
Format profile : Layer 2
Duration : 8mn 31s
Bit rate mode : Constant
Bit rate : 192 Kbps
Channel(s) : 2 channels
Sampling rate : 48.0 KHz
Compression mode : Lossy
Stream size : 11.7 MiB (5%)
Other forum [Profile] [PM]
Display posts from previous:    
Reply to topic

The time now is: Today 18:37

All times are GMT + 3 Hours



You cannot post new topics in this forum
You cannot reply to topics in this forum
You cannot edit your posts in this forum
You cannot delete your posts in this forum
You cannot vote in polls in this forum
You cannot attach files in this forum
You cannot download files in this forum