Today is a free download without charge Download

Hurricane Festival 2013 [2013, Rock/Hard rock/Heave metal, HDTV 1080i]

Reply to topic
 
Author
Message

Omen ®

Longevity: 8 years 4 months

Posts: 181087

Торрент-статистика

Post 18-Aug-2013 04:45

[Quote]

Hurricane Festival 2013
Жанр: Rock/Hard rock/Heave metal
Продолжительность: 01:29:59
Год выпуска: 2013
Описание: Ежегодный рок-фестиваль Hurricane проходящий в городке Scheeßel близ Бремена, Германия.
Доп. информация: Собственная запись со спутникового канала ARTE 2013 aug17
Треклист: будет добавлен позже.
Качество: HDTV 1080i
Контейнер: TS
Видео кодек: H.264
Аудио кодек: AC3
Видео: Mpeg4 AVC, 1920x1080, 8230 kbps, 25 fps
Аудио: AC3, 256 kbps, 48 kHz, stereo
Аудио 2: AC3, 256 kbps, 48 kHz, stereo
Аудио 3: AC3, 256 kbps, 48 kHz, stereo
Аудио 4: AC3, 192 kbps, 48 kHz, stereo

Отчёт MediaInfo / BDInfo

GeneralID : 1 (0x1)Complete name : D:\Downloads\Hurricane 2013.tsFormat : MPEG-TSFile size : 6.09 GiBDuration : 1h 29mnOverall bit rate mode : VariableOverall bit rate : 9 680 Kbps
VideoID : 571 (0x23B)Menu ID : 1 (0x1)Format : AVCFormat/Info : Advanced Video CodecFormat profile : [email protected] settings, CABAC : YesFormat settings, ReFrames : 3 framesCodec ID : 27Duration : 1h 29mnBit rate : 8 232 KbpsWidth : 1 920 pixelsHeight : 1 080 pixelsDisplay aspect ratio : 16:9Frame rate : 25.000 fpsStandard : ComponentColor space : YUVChroma subsampling : 4:2:0Bit depth : 8 bitsScan type : InterlacedScan order : Top Field FirstBits/(Pixel*Frame) : 0.159Stream size : 5.17 GiB (85%)Color primaries : BT.601 PALTransfer characteristics : BT.470 System B, BT.470 System GMatrix coefficients : BT.601
Audio #1ID : 572 (0x23C)Menu ID : 1 (0x1)Format : AC-3Format/Info : Audio Coding 3Mode extension : CM (complete main)Format settings, Endianness : BigCodec ID : 6Duration : 1h 29mnBit rate mode : ConstantBit rate : 256 KbpsChannel(s) : 2 channelsChannel positions : Front: L RSampling rate : 48.0 KHzBit depth : 16 bitsCompression mode : LossyStream size : 165 MiB (3%)Language : French
Audio #2ID : 573 (0x23D)Menu ID : 1 (0x1)Format : AC-3Format/Info : Audio Coding 3Mode extension : CM (complete main)Format settings, Endianness : BigCodec ID : 6Duration : 1h 29mnBit rate mode : ConstantBit rate : 256 KbpsChannel(s) : 2 channelsChannel positions : Front: L RSampling rate : 48.0 KHzBit depth : 16 bitsCompression mode : LossyStream size : 165 MiB (3%)Language : qaa
Audio #3ID : 574 (0x23E)Menu ID : 1 (0x1)Format : AC-3Format/Info : Audio Coding 3Mode extension : CM (complete main)Format settings, Endianness : BigCodec ID : 6Duration : 1h 29mnBit rate mode : ConstantBit rate : 256 KbpsChannel(s) : 2 channelsChannel positions : Front: L RSampling rate : 48.0 KHzBit depth : 16 bitsCompression mode : LossyStream size : 165 MiB (3%)Language : qad
Audio #4ID : 577 (0x241)Menu ID : 1 (0x1)Format : AC-3Format/Info : Audio Coding 3Mode extension : CM (complete main)Format settings, Endianness : BigCodec ID : 6Duration : 1h 29mnBit rate mode : ConstantBit rate : 192 KbpsChannel(s) : 2 channelsChannel positions : Front: L RSampling rate : 48.0 KHzBit depth : 16 bitsCompression mode : LossyStream size : 124 MiB (2%)Language : German

Скриншоты

Other forum [Profile] [PM]
Similar theme
Forum Topic Author Torrent Replies Last Post
./templates/default/images/folder_dl.gif Rock George Ezra. Hurricane [2015, Folk/Blues/Rock, HDTV 720p] Omen
0 | 1

0 | 924

0

2015-07-14 00:40
Omen Latest
Display posts from previous:    
Reply to topic

The time now is: Today 02:34

All times are GMT + 3 Hours



You cannot post new topics in this forum
You cannot reply to topics in this forum
You cannot edit your posts in this forum
You cannot delete your posts in this forum
You cannot vote in polls in this forum
You cannot attach files in this forum
You cannot download files in this forum