Today is a free download without charge Download

Rod Stewart. Live at London Olympia 1976 [2013, Rock/Pop/Blues rock/Folk rock, HDTV 720p]

Reply to topic
 
Author
Message

Omen ®

Longevity: 8 years 4 months

Posts: 181087

Торрент-статистика

Post 17-Aug-2013 21:22

[Quote]

Rod Stewart. Live at London Olympia 1976
Жанр: Rock/Pop/Blues rock/Folk rock
Продолжительность: 00:44:42
Год выпуска: 2013
Описание: Рождественский концерт Рода Стюарта на сцена театра Olimpia в Лондоне 1976 dec24
Доп. информация: Собственная запись со спутникового канала ZDF.Kultur 2013 aug17
Треклист: Tonight's The Night
This Old Heart Of Mine
Sweet Little Rock 'n' Roller
I Don’t Wanna Talk About It
The Killing Of Georgie
Maggie May
Get Back
Sailing
Качество: HDTV 720p
Контейнер: TS
Видео кодек: H.264
Аудио кодек: AC3
Видео: Mpeg4 AVC, 1280x720, 11000 kbps, 50 fps Progressive
Аудио: AC3, 448 kbps, 48 kHz, stereo
Аудио 2: MP2, 256 kbps, 48 kHz, stereo
Аудио 3: MP2, 192 kbps, 48 kHz, stereo

Отчёт MediaInfo / BDInfo

GeneralID : 1 (0x1)Complete name : D:\Downloads\Rod Stewart. Live at London Olympia 1976.tsFormat : MPEG-TSFile size : 3.97 GiBDuration : 44mn 42sOverall bit rate mode : VariableOverall bit rate : 12.7 Mbps
VideoID : 6410 (0x190A)Menu ID : 1 (0x1)Format : AVCFormat/Info : Advanced Video CodecFormat profile : [email protected] settings, CABAC : YesFormat settings, ReFrames : 6 framesCodec ID : 27Duration : 44mn 42sBit rate : 11.0 MbpsWidth : 1 280 pixelsHeight : 720 pixelsDisplay aspect ratio : 16:9Frame rate : 50.000 fpsColor space : YUVChroma subsampling : 4:2:0Bit depth : 8 bitsScan type : ProgressiveBits/(Pixel*Frame) : 0.239Stream size : 3.43 GiB (86%)Color primaries : BT.709Transfer characteristics : BT.709Matrix coefficients : BT.709
Audio #1ID : 6420 (0x1914)Menu ID : 1 (0x1)Format : MPEG AudioFormat version : Version 1Format profile : Layer 2Codec ID : 3Duration : 44mn 42sBit rate mode : ConstantBit rate : 256 KbpsChannel(s) : 2 channelsSampling rate : 48.0 KHzCompression mode : LossyStream size : 81.9 MiB (2%)Language : German
Audio #2ID : 6421 (0x1915)Menu ID : 1 (0x1)Format : MPEG AudioFormat version : Version 1Format profile : Layer 2Codec ID : 3Duration : 44mn 42sBit rate mode : ConstantBit rate : 192 KbpsChannel(s) : 2 channelsSampling rate : 48.0 KHzCompression mode : LossyStream size : 61.4 MiB (2%)
Audio #3ID : 6422 (0x1916)Menu ID : 1 (0x1)Format : AC-3Format/Info : Audio Coding 3Mode extension : CM (complete main)Format settings, Endianness : BigCodec ID : 6Duration : 44mn 42sBit rate mode : ConstantBit rate : 448 KbpsChannel(s) : 2 channelsChannel positions : Front: L RSampling rate : 48.0 KHzBit depth : 16 bitsCompression mode : LossyStream size : 143 MiB (4%)Language : German
Audio #4ID : 6423 (0x1917)Menu ID : 1 (0x1)Format : MPEG AudioFormat version : Version 1Format profile : Layer 2Codec ID : 3Duration : 44mn 42sBit rate mode : ConstantBit rate : 192 KbpsChannel(s) : 2 channelsSampling rate : 48.0 KHzCompression mode : LossyStream size : 61.4 MiB (2%)Language : Multiple languages
TextID : 6430 (0x191E)-100Menu ID : 1 (0x1)Format : TeletextLanguage : German
MenuID : 6400 (0x1900)Menu ID : 1 (0x1)Duration : 44mn 42sList : 6410 (0x190A) (AVC) / 6420 (0x1914) (MPEG Audio, German) / 6421 (0x1915) (MPEG Audio) / 6422 (0x1916) (AC-3, German) / 6423 (0x1917) (MPEG Audio, Multiple languages) / 6430 (0x191E) ()Language : / German / / German / Multiple languages

Скриншоты

Other forum [Profile] [PM]
Similar theme
Forum Topic Author Torrent Replies Last Post
./templates/default/images/folder_dl.gif Rock Rod Stewart - The Ballad Album (2013) [FLAC|Lossless] UndegraundMen
1 | 0

0 | 863

3

2013-10-16 17:00
UndegraundMen Latest
./templates/default/images/folder_dl.gif Rock (Rock, Ballad, Vocal) [CD] Rod Stewart - Picture In A Frame. The Best Ballads - 2015, FLAC (tracks+.cue), lossless Omen
1 | 0

0 | 370

1

2015-07-13 06:00
Omen Latest
Display posts from previous:    
Reply to topic

The time now is: Today 04:04

All times are GMT + 3 Hours



You cannot post new topics in this forum
You cannot reply to topics in this forum
You cannot edit your posts in this forum
You cannot delete your posts in this forum
You cannot vote in polls in this forum
You cannot attach files in this forum
You cannot download files in this forum