Today is a free download without charge Download

Крисалис / Chrysalis (Жюльен Леклерк) [2007 г., Фантастика, триллер, криминал, BDRip 720]

Reply to topic
 
Author
Message

Omen ®

Longevity: 8 years 5 months

Posts: 181087

Торрент-статистика

Post 11-Sep-2011 20:19

[Quote]

Крисалис / Chrysalis-
Год выпуска: 2007
Страна: Франция, Gaumont - TF1 Films Productions - Canal+
Жанр: Фантастика, триллер, криминал
Продолжительность: 1:33:58
Перевод: Профессиональный (многоголосый, закадровый) [Лицензия]
Русские субтитры: нет-Режиссер: Жюльен Леклерк
В ролях: Альберт Дюпонтель, Мари Гийярд, Марта Келлер, Мелани Тьерри, Клод Перрон, Патрик Буше, Сирил Лекомте-Описание: Париж, 2020 год. Хирург, специализирующийся на новых технологиях и ее дочь попадают в ужасную автомобильную аварию. Врач спасает жизнь дочери, используя свои разработки и воздействуя на ее мечты и воспоминания. В это же время полицейский Хофман в результате бандитской перестрелки, теряет своего напарника и жену. Хофман жаждет отмщения и поэтому, как только получает нового напарника, начинает охоту за преступником, убившем самых дорогих ему людей. Расследование неожиданно приводит Хофмана к хирургу, ее клинике, загадочным разработкам и исследованиям, проводящихся там.- -Видеокодек: MPEG-4 AVC/H.264
Битрейт видео: ~5 150 Kbps
Размер кадра: 1280x544
Качество видео: [720р] BDRip
Аудиокодек: AC3 5.1
Битрейт аудио: 448 Kbps
Аудио #1: AC3, 5.1, 448 Kbps, (Русский-многоголосый)
Аудио #2: DTS, 5.1, 755 Kbps, (Французский-оригинал)
Субтитры: Английские- ASS-Сэмпл: Ссылка-

MediaInfo

Код:
Complete name Chrysalis.2007.720p.BluRay.DTS.Rus.x264-f0g.mkv
Format : Matroska
File size : 4.16 GiB
Duration : 1h 33mn
Overall bit rate : 6 339 Kbps
Movie name : Chrysalis [f0g]
Encoded date : UTC 2008-12-01 14:07:31
Writing application : mkvmerge v2.1.0 ('Another Place To Fall') built on Aug 19 2007 13:40:07
Writing library : libebml v0.7.7 + libmatroska v0.8.1
Attachment : Yes / Yes / Yes / Yes / Yes / Yes / Yes
Video
ID : 1
Format : AVC
Format/Info : Advanced Video Codec
Format profile : [email protected]
Format settings, CABAC : Yes
Format settings, ReFrames : 10 frames
Codec ID : V_MPEG4/ISO/AVC
Duration : 1h 33mn
Bit rate : 5 150 Kbps
Width : 1 280 pixels
Height : 544 pixels
Display aspect ratio : 2.35:1
Frame rate : 23.976 fps
Color space : YUV
Chroma subsampling : 4:2:0
Bit depth : 8 bits
Scan type : Progressive
Bits/(Pixel*Frame) : 0.308
Stream size : 3.29 GiB (79%)
Writing library : x264 core 61 r965M 3d2983d
Encoding settings : cabac=1 / ref=10 / deblock=1:-3:-3 / analyse=0x3:0x133 / me=umh / subme=6 / psy_rd=0.9:0.8 / brdo=1 / mixed_ref=1 / me_range=16 / chroma_me=1 / trellis=2 / 8x8dct=1 / cqm=0 / deadzone=21,11 / chroma_qp_offset=-4 / threads=6 / nr=0 / decimate=1 / mbaff=0 / bframes=5 / b_pyramid=1 / b_adapt=0 / b_bias=0 / direct=1 / wpredb=1 / bime=1 / keyint=250 / keyint_min=25 / scenecut=40(pre) / rc=2pass / bitrate=5150 / ratetol=1.0 / qcomp=1.00 / qpmin=8 / qpmax=51 / qpstep=4 / cplxblur=20.0 / qblur=0.5 / ip_ratio=1.40 / pb_ratio=1.30 / aq=2:0.70
Language : English
Audio #1
ID : 2
Format : AC-3
Format/Info : Audio Coding 3
Mode extension : CM (complete main)
Codec ID : A_AC3
Duration : 1h 33mn
Bit rate mode : Constant
Bit rate : 448 Kbps
Channel(s) : 6 channels
Channel positions : Front: L C R, Side: L R, LFE
Sampling rate : 48.0 KHz
Bit depth : 16 bits
Compression mode : Lossy
Stream size : 301 MiB (7%)
Title : DD 5.1 @ 448kbps | Лицензия
Language : Russian
Audio #2
ID : 3
Format : DTS
Format/Info : Digital Theater Systems
Codec ID : A_DTS
Duration : 1h 33mn
Bit rate mode : Constant
Bit rate : 755 Kbps
Channel(s) : 6 channels
Channel positions : Front: L C R, Side: L R, LFE
Sampling rate : 48.0 KHz
Bit depth : 24 bits
Compression mode : Lossy
Stream size : 507 MiB (12%)
Title : DTS @ 768kbps | Оригинал
Language : French
Text
ID : 4
Format : ASS
Codec ID : S_TEXT/ASS
Codec ID/Info : Advanced Sub Station Alpha
Compression mode : Lossless
Title : ASS
Language : English
-Скриншоты:
       


Last edited by Omen on 2011-09-11 21:36; edited 2 times in total
Other forum [Profile] [PM]
Display posts from previous:    
Reply to topic

The time now is: Today 11:46

All times are GMT + 3 Hours



You cannot post new topics in this forum
You cannot reply to topics in this forum
You cannot edit your posts in this forum
You cannot delete your posts in this forum
You cannot vote in polls in this forum
You cannot attach files in this forum
You cannot download files in this forum