Today is a free download without charge Download

Управление гневом / Anger Management (Питер Сигал) [2003 г., мелодрама, комедия, BDRip720p]

Reply to topic
 
Author
Message

Delia ®

Gender:

Longevity: 9 years 6 months

Posts: 1821

Торрент-статистика

Post 11-Sep-2011 19:42

[Quote]

Управление гневом Anger Management Год выпуска: 2003
Страна: США
Жанр: мелодрама, комедия
Продолжительность: 01:43:03
Перевод: Дублированный
Режиссер: Питер Сигал
Продюссер: Бэрри Бернарди, Джек Джиррапуто, Адам Сэндлер
Сценарий: Дэвид Дорфман
Бюджет: $75 000 000
Премьера в мире: 5 марта 2003
В ролях: Адам Сэндлер, Джек Николсон, Мариса Томей, Луис Гузман, Аллен Коверт, Линн Тигпен, Курт Фуллер, Джонатан Лоугрэн, Криста Аллен, Дженьюэри Джонс
Описание: Консервативный бизнесмен Дейв Базник обвинён в излишней агрессивности и приговорён к восстановительной программе, направленной на обучение управлению своими негативными эмоциями.
Во время прохождения этой программы Дейв обнаруживает, что его преподаватель, доктор Бадди Риделл, сам является психически неустойчивым человеком. И пока психолог пытается направить эмоции пациента в спокойное русло, Дейв начинает понимать, что теперь он и вправду все меньше контролирует свой гнев.
Качество: BDRip720p
Формат: MKV
Видео кодек: H.264
Аудио кодек: AC3
Видео: English, 4199 Кбит/сек, 1280*528 (2,40:1), в 23,976 кадр/сек, AVC ([email protected])
Аудио: Russian, 640 Кбит/сек, 48,0 КГц, 16 бит, 6 канала(ов), AC-3

MI:

Общее
Уникальный идентификатор : 200139711935759315989823058626076765170 (0x969181A540C7E52D8F2E297DB7D46BF2)
Полное имя : E:\торрент\Anger Management(2003) BDRip720p.mkv
Формат : Matroska
Размер файла : 3,55 Гбайт
Продолжительность : 1 ч. 45 м.
Общий поток : 4836 Кбит/сек
Дата кодирования : UTC 2011-09-11 14:49:05
Программа кодирования : mkvmerge v4.9.1 ('Ich will') built on Jul 11 2011 23:53:15
Библиотека кодирования : libebml v1.2.1 + libmatroska v1.1.1
Видео
Идентификатор : 1
Формат : AVC
Формат/Информация : Advanced Video Codec
Профиль формата : [email protected]
Параметр CABAC формата : Да
Параметр ReFrames формата : 9 кадры
Идентификатор кодека : V_MPEG4/ISO/AVC
Продолжительность : 1 ч. 45 м.
Битрейт : 4199 Кбит/сек
Ширина : 1280 пикс.
Высота : 528 пикс.
Соотношение сторон : 2,40:1
Частота кадров : 23,976 кадр/сек
Цветовое пространство : YUV
Подвыборка цветности : 4:2:0
Битовая глубина : 8 бит
Тип развёртки : Прогрессивная
Бит/(Пиксели*Кадры) : 0.259
Размер потока : 3,01 Гбайт (85%)
Библиотека кодирования : x264 core 116 r2074 2641b9e
Настройки программы : cabac=1 / ref=9 / deblock=1:-3:-3 / analyse=0x3:0x113 / me=umh / subme=9 / psy=1 / psy_rd=1.00:0.15 / mixed_ref=1 / me_range=32 / chroma_me=1 / trellis=2 / 8x8dct=1 / cqm=0 / deadzone=21,11 / fast_pskip=0 / chroma_qp_offset=-3 / threads=6 / sliced_threads=0 / nr=0 / decimate=1 / interlaced=0 / bluray_compat=0 / constrained_intra=0 / bframes=6 / b_pyramid=2 / b_adapt=2 / b_bias=0 / direct=3 / weightb=1 / open_gop=0 / weightp=2 / keyint=250 / keyint_min=23 / scenecut=40 / intra_refresh=0 / rc_lookahead=50 / rc=2pass / mbtree=1 / bitrate=4199 / ratetol=1.0 / qcomp=0.80 / qpmin=0 / qpmax=69 / qpstep=4 / cplxblur=20.0 / qblur=0.5 / ip_ratio=1.40 / aq=1:1.00
Язык : English
Аудио
Идентификатор : 2
Формат : AC-3
Формат/Информация : Audio Coding 3
Расширение режима : CM (complete main)
Идентификатор кодека : A_AC3
Продолжительность : 1 ч. 45 м.
Вид битрейта : Постоянный
Битрейт : 640 Кбит/сек
Канал(ы) : 6 канала(ов)
Расположение каналов : Front: L C R, Side: L R, LFE
Частота : 48,0 КГц
Битовая глубина : 16 бит
Метод сжатия : С потерями
Размер потока : 481 Мбайт (13%)
Язык : Russian
Меню
00:00:00.000 : en:00:00:00.000
00:05:04.054 : en:00:05:04.054
00:09:59.516 : en:00:09:59.516
00:16:54.722 : en:00:16:54.722
00:22:25.719 : en:00:22:25.719
00:29:28.976 : en:00:29:28.976
00:36:20.595 : en:00:36:20.595
00:42:22.039 : en:00:42:22.039
00:47:57.833 : en:00:47:57.833
00:52:36.445 : en:00:52:36.445
00:58:05.440 : en:00:58:05.440
01:04:42.587 : en:01:04:42.587
01:16:01.056 : en:01:16:01.056
01:20:44.798 : en:01:20:44.798
01:27:36.376 : en:01:27:36.376
01:35:07.076 : en:01:35:07.076

Скриншоты

               

_________________
Человек – это канат, натянутый между животным и сверхчеловеком, – канат над пропастью.
В человеке ценно то, что он мост, а не цель. Фридрих Ницше
Other forum [Profile] [PM]
Similar theme
Forum Topic Author Torrent Replies Last Post
./templates/default/images/folder_dl.gif Обучающее видео Управление небольшими проектами Бонни Байэфора / Managing Small Projects with Bonnie Biafore [2013, менеджмент, HDRip, ENG] (Видеоурок) Omen
1 | 0

0 | 1763

9

2015-07-30 00:00
Omen Latest
./templates/default/images/folder_dl.gif Обучающее видео [Нетология]Управление репутацией в интернете [2015, Бизнес, WEBRip, RUS] (ММ) Omen
0 | 1

0 | 354

0

2015-10-29 21:00
Omen Latest
./templates/default/images/folder_dl.gif Обучающее видео [Lynda.com] Раскрытие сути диаграмм Гантта с Крисом Крофтом / Gantt Charts Explained with Chris Croft [18/11/2015, управление проектами, HDRip, ENG] (Видеоурок) Omen
1 | 0

0 | 1883

12

2015-11-22 21:08
Omen Latest
./templates/default/images/folder_dl.gif Обучающее видео [Pluralsight.com] Расставление приоритетов и управление временем для увеличения производительности / Prioritizing Tasks and Managing Time for Greater Productivity [2015, увеличение производительности, тайм-менеджмент, HDRip, ENG] (Видеоурок) Omen
1 | 0

0 | 872

6

2016-01-08 15:00
Omen Latest
./templates/default/images/folder_dl.gif Обучающее видео [Udemy.com / Upskill Academy] Управление временем: инструменты и техники для правильного планирования своего дня / Time Management: Tools & Techniques To Plan Your Day Right! [2015, тайм-менеджмент, HDRip, ENG] (Видеоурок) Omen
1 | 0

0 | 1297

9

2016-01-11 21:00
Omen Latest
./templates/default/images/folder_dl.gif Обучающее видео [Pluralsight.com / Jason Alba] Создание и обучение эффективной команды для руководителей Джейсона Альбы / Creating and Leading Effective Teams for Managers By Jason Alba [2015, управление командой, HDRip, ENG] (Видеоурок) Omen
1 | 0

0 | 1171

4

2016-02-09 15:00
Omen Latest
./templates/default/images/folder_dl.gif Обучающее видео [Lynda.com / Britt Andreatta] Управление с эмоциональным интеллектом Бритт Андреатты / Leading with Emotional Intelligence with Britt Andreatta [2013, бизнес, HDRip, ENG] (Видеоурок) Omen
1 | 0

0 | 1992

10

2016-04-22 21:00
Omen Latest
./templates/default/images/folder_dl.gif Психология, Тренинг, Саморазвитие Константин Бакшт | Азбука денег: управление личным кошельком (2017) [MP3] Anonymous
1 | 0

0 | 10521

4

2017-06-16 22:45
Anonymous Latest
Display posts from previous:    
Reply to topic

The time now is: Today 11:34

All times are GMT + 3 Hours



You cannot post new topics in this forum
You cannot reply to topics in this forum
You cannot edit your posts in this forum
You cannot delete your posts in this forum
You cannot vote in polls in this forum
You cannot attach files in this forum
You cannot download files in this forum