Today is a free download without charge Download

(Soundtrack,Rock/Pop, Classical) VA - Pacific Rim - 2013, FLAC (tracks), lossless

Reply to topic
 
Author
Message

sergej644 ®

Gender:

Longevity: 9 years 3 months

Posts: 656

Location: Klaipeda

Торрент-статистика

Post 17-Aug-2013 11:56

[Quote]

-VA - Pacific Rim- Страна: USA
Жанр: Soundtrack (Rock/Pop, Classical)
Год выпуска: 2013
Формат: FLAC (tracks)
Битрейт аудио: lossless
Продолжительность: 00:57:52
--- -

треклист

01. Ramin Djawadi - Pacific Rim (Feat. Tom Morello) (04:55)
02. Ramin Djawadi - Gipsy Danger (03:19)
03. Ramin Djawadi - Canceling The Apocalypse (03:39)
04. Ramin Djawadi - Just A Memory (02:08)
05. Ramin Djawadi - 2500 Tons Of Awesome (01:05)
06. Ramin Djawadi - The Shatterdome (02:31)
07. Ramin Djawadi - Mako (Feat. Priscilla Ahn) (04:24)
08. Ramin Djawadi - Call Me Newt (01:43)
09. Ramin Djawadi - Jaeger Tech (Feat. Tom Morello) (01:58)
10. Ramin Djawadi - To Fight Monsters, We Created Monsters (02:04)
11. Ramin Djawadi - Better Than New (01:41)
12. Ramin Djawadi - We Are The Resistance (01:49)
13. Ramin Djawadi - Double Event (02:28)
14. Ramin Djawadi - Striker Eureka (01:55)
15. Ramin Djawadi - Physical Compatibility (02:32)
16. Ramin Djawadi - Category 5 (02:17)
17. Ramin Djawadi - Pentecost (02:12)
18. Ramin Djawadi - Go Big Or Go Extinct (Feat. Tom Morello) (02:25)
19. Ramin Djawadi - Hannibal Chau (01:34)
20. Ramin Djawadi - For My Family (01:58)
21. Ramin Djawadi - No Pulse (Feat. Tom Morello) (00:58)
22. Ramin Djawadi - Kaiju Groupie (01:15)
23. Ramin Djawadi - Deep Beneath The Pacific (01:55)
24. Ramin Djawadi - The Breach (03:15)
25. Ramin Djawadi - We Need A New Weapon (01:41)

лог создания рипа

Код:
Exact Audio Copy V1.0 beta 3 from 29. August 2011
EAC extraction logfile from 14. July 2013, 0:39
Ramin Djawadi / Pacific Rim
Used drive  : SONY    DVD RW DRU-700A   Adapter: 2  ID: 1
Read mode               : Secure
Utilize accurate stream : Yes
Defeat audio cache      : Yes
Make use of C2 pointers : No
Read offset correction                      : 12
Overread into Lead-In and Lead-Out          : No
Fill up missing offset samples with silence : Yes
Delete leading and trailing silent blocks   : No
Null samples used in CRC calculations       : Yes
Used interface                              : Native Win32 interface for Win NT & 2000
Gap handling                                : Appended to previous track
Used output format              : User Defined Encoder
Selected bitrate                : 128 kBit/s
Quality                         : High
Add ID3 tag                     : No
Command line compressor         : C:\Program Files (x86)\FLAC\flac.exe
Additional command line options : -T "artist=%artist%" -T "title=%title%" -T "album=%albumtitle%" -T "date=%year%" -T "tracknumber=%tracknr%" -T "genre=%genre%" -5 %source%
TOC of the extracted CD
     Track |   Start  |  Length  | Start sector | End sector
    ---------------------------------------------------------
        1  |  0:00.00 |  4:55.32 |         0    |    22156
        2  |  4:55.32 |  3:19.63 |     22157    |    37144
        3  |  8:15.20 |  3:39.12 |     37145    |    53581
        4  | 11:54.32 |  2:08.53 |     53582    |    63234
        5  | 14:03.10 |  1:05.22 |     63235    |    68131
        6  | 15:08.32 |  2:31.20 |     68132    |    79476
        7  | 17:39.52 |  4:24.09 |     79477    |    99285
        8  | 22:03.61 |  1:43.48 |     99286    |   107058
        9  | 23:47.34 |  1:58.42 |    107059    |   115950
       10  | 25:46.01 |  2:04.55 |    115951    |   125305
       11  | 27:50.56 |  1:41.47 |    125306    |   132927
       12  | 29:32.28 |  1:49.47 |    132928    |   141149
       13  | 31:22.00 |  2:28.64 |    141150    |   152313
       14  | 33:50.64 |  1:55.07 |    152314    |   160945
       15  | 35:45.71 |  2:32.04 |    160946    |   172349
       16  | 38:18.00 |  2:17.57 |    172350    |   182681
       17  | 40:35.57 |  2:12.46 |    182682    |   192627
       18  | 42:48.28 |  2:25.42 |    192628    |   203544
       19  | 45:13.70 |  1:34.37 |    203545    |   210631
       20  | 46:48.32 |  1:58.10 |    210632    |   219491
       21  | 48:46.42 |  0:58.26 |    219492    |   223867
       22  | 49:44.68 |  1:15.49 |    223868    |   229541
       23  | 51:00.42 |  1:55.41 |    229542    |   238207
       24  | 52:56.08 |  3:15.39 |    238208    |   252871
       25  | 56:11.47 |  1:41.20 |    252872    |   260466
Track  1
     Filename N:\LzTr exclusive\Pacific Rim (2013, lztr, FLAC) - Ramin Djawadi\101 - Pacific Rim (Feat. Tom Morello).wav
     Pre-gap length  0:00:02.00
     Peak level 98.8 %
     Extraction speed 4.4 X
     Track quality 100.0 %
     Test CRC 657F4604
     Copy CRC 657F4604
     Track not present in AccurateRip database
     Copy OK
Track  2
     Filename N:\LzTr exclusive\Pacific Rim (2013, lztr, FLAC) - Ramin Djawadi\102 - Gipsy Danger.wav
     Peak level 97.8 %
     Extraction speed 4.5 X
     Track quality 99.9 %
     Test CRC 11B865B9
     Copy CRC 11B865B9
     Track not present in AccurateRip database
     Copy OK
Track  3
     Filename N:\LzTr exclusive\Pacific Rim (2013, lztr, FLAC) - Ramin Djawadi\103 - Canceling The Apocalypse.wav
     Peak level 98.8 %
     Extraction speed 5.1 X
     Track quality 100.0 %
     Test CRC 4DD32DEF
     Copy CRC 4DD32DEF
     Track not present in AccurateRip database
     Copy OK
Track  4
     Filename N:\LzTr exclusive\Pacific Rim (2013, lztr, FLAC) - Ramin Djawadi\104 - Just A Memory.wav
     Peak level 97.7 %
     Extraction speed 5.1 X
     Track quality 100.0 %
     Test CRC B17E58CF
     Copy CRC B17E58CF
     Track not present in AccurateRip database
     Copy OK
Track  5
     Filename N:\LzTr exclusive\Pacific Rim (2013, lztr, FLAC) - Ramin Djawadi\105 - 2500 Tons Of Awesome.wav
     Peak level 98.8 %
     Extraction speed 4.9 X
     Track quality 100.0 %
     Test CRC 342B4E10
     Copy CRC 342B4E10
     Track not present in AccurateRip database
     Copy OK
Track  6
     Filename N:\LzTr exclusive\Pacific Rim (2013, lztr, FLAC) - Ramin Djawadi\106 - The Shatterdome.wav
     Peak level 97.7 %
     Extraction speed 5.4 X
     Track quality 100.0 %
     Test CRC 14342DCD
     Copy CRC 14342DCD
     Track not present in AccurateRip database
     Copy OK
Track  7
     Filename N:\LzTr exclusive\Pacific Rim (2013, lztr, FLAC) - Ramin Djawadi\107 - Mako (Feat. Priscilla Ahn).wav
     Peak level 98.8 %
     Extraction speed 5.8 X
     Track quality 100.0 %
     Test CRC FB58778E
     Copy CRC FB58778E
     Track not present in AccurateRip database
     Copy OK
Track  8
     Filename N:\LzTr exclusive\Pacific Rim (2013, lztr, FLAC) - Ramin Djawadi\108 - Call Me Newt.wav
     Peak level 97.7 %
     Extraction speed 5.6 X
     Track quality 100.0 %
     Test CRC FAD73135
     Copy CRC FAD73135
     Track not present in AccurateRip database
     Copy OK
Track  9
     Filename N:\LzTr exclusive\Pacific Rim (2013, lztr, FLAC) - Ramin Djawadi\109 - Jaeger Tech (Feat. Tom Morello).wav
     Peak level 98.8 %
     Extraction speed 5.8 X
     Track quality 100.0 %
     Test CRC 07AF902D
     Copy CRC 07AF902D
     Track not present in AccurateRip database
     Copy OK
Track 10
     Filename N:\LzTr exclusive\Pacific Rim (2013, lztr, FLAC) - Ramin Djawadi\110 - To Fight Monsters, We Created Monsters.wav
     Peak level 97.7 %
     Extraction speed 5.9 X
     Track quality 100.0 %
     Test CRC 097B0FE8
     Copy CRC 097B0FE8
     Track not present in AccurateRip database
     Copy OK
Track 11
     Filename N:\LzTr exclusive\Pacific Rim (2013, lztr, FLAC) - Ramin Djawadi\111 - Better Than New.wav
     Peak level 73.5 %
     Extraction speed 5.9 X
     Track quality 100.0 %
     Test CRC 82F0E9A6
     Copy CRC 82F0E9A6
     Track not present in AccurateRip database
     Copy OK
Track 12
     Filename N:\LzTr exclusive\Pacific Rim (2013, lztr, FLAC) - Ramin Djawadi\112 - We Are The Resistance.wav
     Peak level 97.7 %
     Extraction speed 6.0 X
     Track quality 100.0 %
     Test CRC F379EB7F
     Copy CRC F379EB7F
     Track not present in AccurateRip database
     Copy OK
Track 13
     Filename N:\LzTr exclusive\Pacific Rim (2013, lztr, FLAC) - Ramin Djawadi\113 - Double Event.wav
     Peak level 97.7 %
     Extraction speed 6.3 X
     Track quality 100.0 %
     Test CRC F8D7F95A
     Copy CRC F8D7F95A
     Track not present in AccurateRip database
     Copy OK
Track 14
     Filename N:\LzTr exclusive\Pacific Rim (2013, lztr, FLAC) - Ramin Djawadi\114 - Striker Eureka.wav
     Peak level 98.8 %
     Extraction speed 6.3 X
     Track quality 100.0 %
     Test CRC 6CE1A54A
     Copy CRC 6CE1A54A
     Track not present in AccurateRip database
     Copy OK
Track 15
     Filename N:\LzTr exclusive\Pacific Rim (2013, lztr, FLAC) - Ramin Djawadi\115 - Physical Compatibility.wav
     Peak level 98.8 %
     Extraction speed 5.6 X
     Track quality 99.9 %
     Test CRC 28C7FD77
     Copy CRC 28C7FD77
     Track not present in AccurateRip database
     Copy OK
Track 16
     Filename N:\LzTr exclusive\Pacific Rim (2013, lztr, FLAC) - Ramin Djawadi\116 - Category 5.wav
     Peak level 98.8 %
     Extraction speed 5.6 X
     Track quality 99.9 %
     Test CRC DDCDA5EE
     Copy CRC DDCDA5EE
     Track not present in AccurateRip database
     Copy OK
Track 17
     Filename N:\LzTr exclusive\Pacific Rim (2013, lztr, FLAC) - Ramin Djawadi\117 - Pentecost.wav
     Peak level 97.7 %
     Extraction speed 6.7 X
     Track quality 100.0 %
     Test CRC 69BDB69B
     Copy CRC 69BDB69B
     Track not present in AccurateRip database
     Copy OK
Track 18
     Filename N:\LzTr exclusive\Pacific Rim (2013, lztr, FLAC) - Ramin Djawadi\118 - Go Big Or Go Extinct (Feat. Tom Morello).wav
     Peak level 97.7 %
     Extraction speed 6.8 X
     Track quality 100.0 %
     Test CRC 9985CDF7
     Copy CRC 9985CDF7
     Track not present in AccurateRip database
     Copy OK
Track 19
     Filename N:\LzTr exclusive\Pacific Rim (2013, lztr, FLAC) - Ramin Djawadi\119 - Hannibal Chau.wav
     Peak level 97.7 %
     Extraction speed 6.6 X
     Track quality 100.0 %
     Test CRC A7382B60
     Copy CRC A7382B60
     Track not present in AccurateRip database
     Copy OK
Track 20
     Filename N:\LzTr exclusive\Pacific Rim (2013, lztr, FLAC) - Ramin Djawadi\120 - For My Family.wav
     Peak level 98.8 %
     Extraction speed 6.9 X
     Track quality 100.0 %
     Test CRC BE1B5DC6
     Copy CRC BE1B5DC6
     Track not present in AccurateRip database
     Copy OK
Track 21
     Filename N:\LzTr exclusive\Pacific Rim (2013, lztr, FLAC) - Ramin Djawadi\121 - No Pulse (Feat. Tom Morello).wav
     Peak level 98.8 %
     Extraction speed 6.4 X
     Track quality 100.0 %
     Test CRC F7F7F411
     Copy CRC F7F7F411
     Track not present in AccurateRip database
     Copy OK
Track 22
     Filename N:\LzTr exclusive\Pacific Rim (2013, lztr, FLAC) - Ramin Djawadi\122 - Kaiju Groupie.wav
     Peak level 98.8 %
     Extraction speed 5.1 X
     Track quality 99.8 %
     Test CRC 3F3EF213
     Copy CRC 3F3EF213
     Track not present in AccurateRip database
     Copy OK
Track 23
     Filename N:\LzTr exclusive\Pacific Rim (2013, lztr, FLAC) - Ramin Djawadi\123 - Deep Beneath The Pacific.wav
     Peak level 98.8 %
     Extraction speed 5.8 X
     Track quality 99.9 %
     Test CRC C346B9F9
     Copy CRC C346B9F9
     Track not present in AccurateRip database
     Copy OK
Track 24
     Filename N:\LzTr exclusive\Pacific Rim (2013, lztr, FLAC) - Ramin Djawadi\124 - The Breach.wav
     Peak level 98.8 %
     Extraction speed 6.6 X
     Track quality 99.9 %
     Test CRC D18D7D72
     Copy CRC D18D7D72
     Track not present in AccurateRip database
     Copy OK
Track 25
     Filename N:\LzTr exclusive\Pacific Rim (2013, lztr, FLAC) - Ramin Djawadi\125 - We Need A New Weapon.wav
     Peak level 98.8 %
     Extraction speed 1.4 X
     Track quality 99.8 %
     Test CRC D74BEF8B
     Copy CRC D74BEF8B
     Track not present in AccurateRip database
     Copy OK
None of the tracks are present in the AccurateRip database
No errors occurred
End of status report

содержание индексной карты *cue

Код:
REM GENRE Soundtrack
REM DATE 2013
REM DISCID 6D0D9019
REM COMMENT "ExactAudioCopy v1.0b3"
PERFORMER "Ramin Djawadi"
TITLE "Pacific Rim"
FILE "01 Pacific Rim (Feat. Tom Morello).flac" WAVE
  TRACK 01 AUDIO
    TITLE "Pacific Rim (Feat. Tom Morello)"
    INDEX 01 00:00:00
FILE "02 Gipsy Danger.flac" WAVE
  TRACK 02 AUDIO
    TITLE "Gipsy Danger"
    INDEX 01 00:00:00
FILE "03 Canceling The Apocalypse.flac" WAVE
  TRACK 03 AUDIO
    TITLE "Canceling The Apocalypse"
    INDEX 01 00:00:00
FILE "04 Just A Memory.flac" WAVE
  TRACK 04 AUDIO
    TITLE "Just A Memory"
    INDEX 01 00:00:00
FILE "05 2500 Tons Of Awesome.flac" WAVE
  TRACK 05 AUDIO
    TITLE "2500 Tons Of Awesome"
    INDEX 01 00:00:00
FILE "06 The Shatterdome.flac" WAVE
  TRACK 06 AUDIO
    TITLE "The Shatterdome"
    INDEX 01 00:00:00
FILE "07 Mako (Feat. Priscilla Ahn).flac" WAVE
  TRACK 07 AUDIO
    TITLE "Mako (Feat. Priscilla Ahn)"
    INDEX 01 00:00:00
FILE "08 Call Me Newt.flac" WAVE
  TRACK 08 AUDIO
    TITLE "Call Me Newt"
    INDEX 01 00:00:00
FILE "09 Jaeger Tech (Feat. Tom Morello).flac" WAVE
  TRACK 09 AUDIO
    TITLE "Jaeger Tech (Feat. Tom Morello)"
    INDEX 01 00:00:00
FILE "10 To Fight Monsters, We Created Monsters.flac" WAVE
  TRACK 10 AUDIO
    TITLE "To Fight Monsters, We Created Monsters"
    INDEX 01 00:00:00
FILE "11 Better Than New.flac" WAVE
  TRACK 11 AUDIO
    TITLE "Better Than New"
    INDEX 01 00:00:00
FILE "12 We Are The Resistance.flac" WAVE
  TRACK 12 AUDIO
    TITLE "We Are The Resistance"
    INDEX 01 00:00:00
FILE "13 Double Event.flac" WAVE
  TRACK 13 AUDIO
    TITLE "Double Event"
    INDEX 01 00:00:00
FILE "14 Striker Eureka.flac" WAVE
  TRACK 14 AUDIO
    TITLE "Striker Eureka"
    INDEX 01 00:00:00
FILE "15 Physical Compatibility.flac" WAVE
  TRACK 15 AUDIO
    TITLE "Physical Compatibility"
    INDEX 01 00:00:00
FILE "16 Category 5.flac" WAVE
  TRACK 16 AUDIO
    TITLE "Category 5"
    INDEX 01 00:00:00
FILE "17 Pentecost.flac" WAVE
  TRACK 17 AUDIO
    TITLE "Pentecost"
    INDEX 01 00:00:00
FILE "18 Go Big Or Go Extinct (Feat. Tom Morello).flac" WAVE
  TRACK 18 AUDIO
    TITLE "Go Big Or Go Extinct (Feat. Tom Morello)"
    INDEX 01 00:00:00
FILE "19 Hannibal Chau.flac" WAVE
  TRACK 19 AUDIO
    TITLE "Hannibal Chau"
    INDEX 01 00:00:00
FILE "20 For My Family.flac" WAVE
  TRACK 20 AUDIO
    TITLE "For My Family"
    INDEX 01 00:00:00
FILE "21 No Pulse (Feat. Tom Morello).flac" WAVE
  TRACK 21 AUDIO
    TITLE "No Pulse (Feat. Tom Morello)"
    INDEX 01 00:00:00
FILE "22 Kaiju Groupie.flac" WAVE
  TRACK 22 AUDIO
    TITLE "Kaiju Groupie"
    INDEX 01 00:00:00
FILE "23 Deep Beneath The Pacific.flac" WAVE
  TRACK 23 AUDIO
    TITLE "Deep Beneath The Pacific"
    INDEX 01 00:00:00
FILE "24 The Breach.flac" WAVE
  TRACK 24 AUDIO
    TITLE "The Breach"
    INDEX 01 00:00:00
FILE "25 We Need A New Weapon.flac" WAVE
  TRACK 25 AUDIO
    TITLE "We Need A New Weapon"
    INDEX 01 00:00:00

_________________
У нас все платно: родиться, учиться, жениться, лечиться, умереть.
Бесплатно разрешено только работать.
Other forum [Profile] [PM]
Display posts from previous:    
Reply to topic

The time now is: Today 06:08

All times are GMT + 3 Hours



You cannot post new topics in this forum
You cannot reply to topics in this forum
You cannot edit your posts in this forum
You cannot delete your posts in this forum
You cannot vote in polls in this forum
You cannot attach files in this forum
You cannot download files in this forum