Today is a free download without charge Download

ONE OK ROCK - 2011-2012 Tour ~Yokohama Arena Special Final~ [WOWOW TV Ver.] [2012, J-Rock / Alternative rock / Pop punk, HDTV 1080i]

Reply to topic
 
Author
Message

Omen ®

Longevity: 8 years 3 months

Posts: 181087

Торрент-статистика

Post 17-Aug-2013 01:06

[Quote]


2011-2012 TOUR
"Zankyo Reference" YOKOHAMA ARENA SPECIAL FINAL
WOWOW TV Ver. 2012.03.12


-
Жанр: J-Rock / Alternative rock / Pop punk ││ Продолжительность: 01:24:41 ││ Год выпуска: 2012
-
01. LOST AND FOUND
02. Kaimu
03. Mikansei Koukyoukyoku
04. Jibun ROCK
05. Re:make
06. Seken Shirazu no Uchu Hikoushi
07. Mr. Gendai Speaker
08. Answer is Near
09. Kagerou
10. Et cetera
11. Pierce
12. C.h.a.o.s.m.y.t.h.
13. Let’s take it someday
14. Rock, Scissors, Paper
15. NO SCARED
16. Koi no Aibou Kokoro no Cupid
17. Kanzen Kankaku Dreamer

-

Тех. данные

Качество: HDTV 1080i
Контейнер: TRP
Видео кодек: MPEG2
Аудио кодек: AAC
Видео: 19,3 Mb/s, 1920x1080 (16:9), 29.970 fps
Аудио: 192 kbps, 2 ch, 48,0 kHz

Отчёт MediaInfo

ОбщееПолное имя :*:\***\ONE OK ROCK - 2011-2012 TOUR ~YOKOHAMA ARENA SPECIAL FINAL~\ONE OK ROCK - 2011-2012 TOUR ~YOKOHAMA ARENA SPECIAL FINAL~ [WOWOW TV Ver. 2012.03.12].trpФормат : MPEG-TSПрофиль формата : No PAT/PMTРазмер файла : 12,1 ГбайтПродолжительность : 1 ч. 24 м.Режим общего битрейта : ПеременныйОбщий поток : 20,5 Мбит/сек
ВидеоИдентификатор : 576 (0x240)Формат : MPEG VideoВерсия формата : Version 2Профиль формата : [email protected]Параметр BVOP формата : ДаПараметр матрицы формата : ВыборочнаяПараметр GOP формата : M=3, N=15Продолжительность : 1 ч. 24 м.Вид битрейта : ПеременныйБитрейт : 19,3 Мбит/секМаксимальный битрейт : 24,0 Мбит/секШирина : 1920 пикселейВысота : 1080 пикселейСоотношение сторон : 16:9Частота кадров : 29,970 кадров/секЦветовое пространство : YUVСубдискретизация насыщенности : 4:2:0Битовая глубина : 8 битТип развёртки : ЧересстрочнаяПорядок развёртки : Верхнее поле первоеМетод сжатия : С потерямиБит/(Пиксели*Кадры) : 0.310Размер потока : 11,4 Гбайт (94%)Основные цвета : BT.709Характеристики трансфера : BT.709Коэффициенты матрицы : BT.709
АудиоИдентификатор : 577 (0x241)Формат : AACФормат/Информация : Advanced Audio CodecВерсия формата : Version 2Профиль формата : LCРежим смешивания : ADTSПродолжительность : 1 ч. 24 м.Вид битрейта : Постоянный / Переменный / ПеременныйБитрейт : 192 Кбит/секМинимальный битрейт : 182 Кбит/сек / 182 Кбит/секМаксимальный битрейт : 232 Кбит/сек / 232 Кбит/секКаналы : 2 каналаРасположение каналов : Front: L RЧастота : 48,0 КГцМетод сжатия : С потерямиЗадержка видео : -389 мс.Размер потока : 116 Мбайт (1%)
Other forum [Profile] [PM]
Display posts from previous:    
Reply to topic

The time now is: Today 16:03

All times are GMT + 3 Hours



You cannot post new topics in this forum
You cannot reply to topics in this forum
You cannot edit your posts in this forum
You cannot delete your posts in this forum
You cannot vote in polls in this forum
You cannot attach files in this forum
You cannot download files in this forum