Today is a free download without charge Download

И дождь смывает все следы / Und der Regen verwischt jede Spur (1972) [H.264] DVDRip

Reply to topic
 
Author
Message

UndegraundMen ®

Longevity: 8 years 8 months

Posts: 25145

Торрент-статистика

Post 16-Aug-2013 11:00

[Quote]

И дождь смывает все следы / Und der Regen verwischt jede Spur (1972) [H.264] DVDRip- Год выпуска: 1972
Производство: ФРГ, Франция / Roxy Film GmbH
Жанр: Мелодрама, Драма
Описание фильма:
Старшеклассница Кристина знакомится с Аланом, студентом из Франции. На каникулы Алан едет домой и хочет взять с собой Кристину. Но немецкий папочка категорически против, и влюбленные решают сбежать без разрешения. Договариваются встретиться в придорожном кафе. Однако, перед поездкой девушка заболевает. Тем не менее, она едет к кафе, но оно оказывается закрытым. А на улице идет холодный ливень. Она ждет любимого под дождем, ждет долго, не зная, что он уже никогда не приедет...
Режиссер: Алфред Форер
Актеры: Алан Нуари, Анита Лохнер, Вольфганг Райхман, Мальте Торстен, Ева Кристиан, Рут-Мария Кубичек, Генри Уол, Альф Мархольм, Маркус Хейг, Александр Аллерсон, Ханс Дениэл, Ева Эбнер, Конрад Георг, Генри Фаль, Герта Ворелль
Продолжительность: 01:33:42
Качество видео: DVDRip
Перевод: Дублированный

Дата мировой премьеры: 16 ноября 1972
Видеокодек: MPEG-4 AVC/H.264
Битрейт видео: ~1750 Кбит/сек
Размер кадра: 768 x 576
Аудиокодек: AC3, 1 ch
Битрейт аудио: 192 Кбит/сек

MediaInfo:

Общее
Уникальный идентификатор : 205941908027816432353843742963863714660 (0x9AEEF7FFD6147BED8A1759AD81B8FB64)
Полное имя : I_Dojd_smivaet_Vse_Sledi.1972.x264.DVDRip.mkv
Формат : Matroska
Версия формата : Version 2
Размер файла : 1,27 Гбайт
Продолжительность : 1 ч. 33 м.
Общий поток : 1944 Кбит/сек
Дата кодирования : UTC 2013-08-13 09:48:11
Программа кодирования : mkvmerge v5.8.0 ('No Sleep / Pillow') built on Sep 2 2012 15:37:04
Библиотека кодирования : libebml v1.2.3 + libmatroska v1.3.0
Видео
Идентификатор : 1
Формат : AVC
Формат/Информация : Advanced Video Codec
Профиль формата : [url=mailto:[email protected]][email protected][/url]
Параметр CABAC формата : Да
Параметр ReFrames формата : 5 кадров
Идентификатор кодека : V_MPEG4/ISO/AVC
Продолжительность : 1 ч. 33 м.
Битрейт : 1750 Кбит/сек
Ширина : 768 пикселей
Высота : 576 пикселей
Соотношение сторон : 4:3
Режим частоты кадров : Постоянный
Частота кадров : 25,000 кадров/сек
Цветовое пространство : YUV
Субдискретизация насыщенности : 4:2:0
Битовая глубина : 8 бит
Тип развёртки : Прогрессивная
Бит/(Пиксели*Кадры) : 0.158
Размер потока : 1,12 Гбайт (88%)
Библиотека кодирования : x264 core 125 r2208 d9d2288
Настройки программы : cabac=1 / ref=5 / deblock=1:-2:-2 / analyse=0x3:0x131 / me=umh / subme=9 / psy=1 / psy_rd=1.00:0.15 / mixed_ref=1 / me_range=32 / chroma_me=1 / trellis=2 / 8x8dct=1 / cqm=0 / deadzone=21,11 / fast_pskip=0 / chroma_qp_offset=-3 / threads=12 / lookahead_threads=2 / sliced_threads=0 / nr=0 / decimate=1 / interlaced=0 / bluray_compat=0 / constrained_intra=0 / bframes=5 / b_pyramid=2 / b_adapt=0 / b_bias=0 / direct=1 / weightb=1 / open_gop=0 / weightp=2 / keyint=250 / keyint_min=25 / scenecut=40 / intra_refresh=0 / rc_lookahead=50 / rc=2pass / mbtree=1 / bitrate=1750 / ratetol=1.0 / qcomp=0.60 / qpmin=0 / qpmax=69 / qpstep=4 / cplxblur=20.0 / qblur=0.5 / ip_ratio=1.40 / aq=1:1.00
Default : Да
Forced : Нет
Аудио
Идентификатор : 2
Формат : AC-3
Формат/Информация : Audio Coding 3
Расширение режима : ME (music and effects)
Параметр Endianness формата : Big
Идентификатор кодека : A_AC3
Продолжительность : 1 ч. 33 м.
Вид битрейта : Постоянный
Битрейт : 192 Кбит/сек
Каналы : 1 канал
Расположение каналов : Front: C
Частота : 48,0 КГц
Битовая глубина : 16 бит
Метод сжатия : С потерями
Размер потока : 129 Мбайт (10%)
Default : Да
Forced : Нет
Скриншоты:
       
       
-
Other forum [Profile] [PM]
Display posts from previous:    
Reply to topic

The time now is: Today 21:15

All times are GMT + 3 Hours



You cannot post new topics in this forum
You cannot reply to topics in this forum
You cannot edit your posts in this forum
You cannot delete your posts in this forum
You cannot vote in polls in this forum
You cannot attach files in this forum
You cannot download files in this forum