Today is a free download without charge Download

Манон 70 / Manon 70 (1968) DVDRip [H.264]

Reply to topic
 
Author
Message

UndegraundMen ®

Longevity: 8 years 8 months

Posts: 25145

Торрент-статистика

Post 16-Aug-2013 11:00

[Quote]

Манон 70 / Manon 70 (1968) DVDRip [H.264] - Год выпуска: 1968
Жанр: Драма
Производство: Франция, Италия, Германия (ФРГ)/Corona Cinematografica, Panda Film, Roxy Film GmbH, Transinter Films
Описание фильма:
Они нашли друг друга случайно. И эта встреча стала началом большой любви. Он — журналист, она — красивая женщина, привыкшая получать все, что захочет. Франсуа подарил Манон настоящую любовь, но, очевидно, этого оказалось мало. Красавица исчезла так же быстро, как и появилась. Она слишком привыкла к образу жизни дорогой проститутки.
Как совместить двойную жизнь и любовь? Чтобы быть рядом с Манон, Франсуа приходится войти в роль ее брата. Но как мучительно наблюдать любимуюженщину в объятиях другого мужчины! Деньги и любовь, любовь к деньгам и деньги для любви… Распутать этот клубок противоречий сможет лишь настоящее чувство.
Режиссер: Жан Орель
Сценарий: Жан Орель, Сесиль Сен-Лоран, Аббат Прево
Продюсер: Робер Дорфман, Ивон Гезель, Лугги Вальдлайтнер
Актеры: Катрин Денёв, Жан-Клод Бриали, Сами Фре, Эльза Мартинелли, Роберт Уэббер, Пауль Хубшмид, Клод Жениа, Жан Мартен, Крис Аврам, Manuela von Oppen
Продолжительность: 01:41:35
Качество видео: DVDRip
Перевод: Двуголосый закадровый

Дата мировой премьеры: 21 февраля 1968
Видеокодек: MPEG-4 AVC/H.264
Битрейт видео: ~2100 Кбит/сек
Размер кадра: 720x416
Аудиокодек: AC3 2.0
Битрейт аудио: 192 kbps

MediaInfo:

Общее
Уникальный идентификатор : 235339489325754144411167757883082946238 (0xB10CBCA9571A07F7AA26783BD6FA36BE)
Полное имя : H:\Downloads\Манон 70.mkv
Формат : Matroska
Размер файла : 1,63 Гбайт
Продолжительность : 1 ч. 41 м.
Общий поток : 2294 Кбит/сек
Дата кодирования : UTC 2013-08-14 12:44:13
Программа кодирования : mkvmerge v6.0.0 ('Coming Up For Air') built on Jan 20 2013 09:52:00
Библиотека кодирования : libebml v1.3.0 + libmatroska v1.4.0
Видео
Идентификатор : 1
Формат : AVC
Формат/Информация : Advanced Video Codec
Профиль формата : [url=mailto:[email protected]][email protected][/url]
Параметр CABAC формата : Да
Параметр ReFrames формата : 8 кадров
Параметры GOP формата : M=4, N=48
Идентификатор кодека : V_MPEG4/ISO/AVC
Продолжительность : 1 ч. 41 м.
Битрейт : 2100 Кбит/сек
Ширина : 720 пикс.
Высота : 416 пикс.
Соотношение сторон : 16:9
Частота кадров : 23,976 кадр/сек
Цветовое пространство : YUV
Подвыборка цветности : 4:2:0
Битовая глубина : 8 бит
Тип развёртки : Прогрессивная
Бит/(Пиксели*Кадры) : 0.292
Размер потока : 1,46 Гбайт (90%)
Заголовок : Manon 70
Библиотека кодирования : x264 core 125 r2208 d9d2288
Настройки программы : cabac=1 / ref=8 / deblock=1:-1:-1 / analyse=0x3:0x133 / me=umh / subme=9 / psy=1 / psy_rd=1.00:0.10 / mixed_ref=1 / me_range=32 / chroma_me=1 / trellis=2 / 8x8dct=1 / cqm=0 / deadzone=21,11 / fast_pskip=0 / chroma_qp_offset=-3 / threads=6 / lookahead_threads=1 / sliced_threads=0 / nr=0 / decimate=1 / interlaced=0 / bluray_compat=0 / constrained_intra=0 / bframes=3 / b_pyramid=2 / b_adapt=2 / b_bias=0 / direct=3 / weightb=1 / open_gop=0 / weightp=2 / keyint=250 / keyint_min=25 / scenecut=40 / intra_refresh=0 / rc_lookahead=60 / rc=2pass / mbtree=1 / bitrate=2100 / ratetol=1.0 / qcomp=0.60 / qpmin=10 / qpmax=51 / qpstep=4 / cplxblur=20.0 / qblur=0.5 / ip_ratio=1.40 / aq=1:1.00
Язык : French
Аудио
Идентификатор : 2
Формат : AC-3
Формат/Информация : Audio Coding 3
Расширение режима : CM (complete main)
Идентификатор кодека : A_AC3
Продолжительность : 1 ч. 41 м.
Вид битрейта : Постоянный
Битрейт : 192 Кбит/сек
Каналы : 2 канала
Расположение каналов : Front: L R
Частота : 48,0 КГц
Битовая глубина : 16 бит
Метод сжатия : С потерями
Размер потока : 140 Мбайт (8%)
Заголовок : Двухголосый закадровый
Язык : Russian
Скриншоты:                    Время раздачи: с 12:00 до 24:00 по Москве (выходные круглосуточно), до 10 скачавших
Other forum [Profile] [PM]
Display posts from previous:    
Reply to topic

The time now is: Today 21:44

All times are GMT + 3 Hours



You cannot post new topics in this forum
You cannot reply to topics in this forum
You cannot edit your posts in this forum
You cannot delete your posts in this forum
You cannot vote in polls in this forum
You cannot attach files in this forum
You cannot download files in this forum