Today is a free download without charge Download

Premiata Forneria Marconi (PFM) In Classic - Da Mozart A Celebration - Estival Jazz Lugano [2013, Italian Symphonic Prog, Progressive Rock, HDTV 720p]

Reply to topic
 
Author
Message

Omen ®

Longevity: 8 years 3 months

Posts: 181087

Торрент-статистика

Post 14-Aug-2013 15:45

[Quote]

Premiata Forneria Marconi (PFM) In Classic
- Da Mozart A Celebration -



Жанр: Italian Symphonic Prog, Progressive Rock
Продолжительность: 01:09:40
Год выпуска: 2013
Franz di Cioccio - vocals, drums
Patrick Djivas - bass
Franco Mussida - vocals, guitar
with
Lucio Fabbri: vocals, keys
Alessandro Scaglione: keys
Roberto Gualdi: drums
Orchestra della Svizzera Italiana, Dir. Pietro Mianiti

Треклист

Intro
Il flauto magico - ouverture
Danza Macabre
Romeo e Giulietta Danza dei Cavalieri
La Grande Pasqua russa
Nabucco Ouverture
Maestro della Voce
Impressioni di Settembre
Suite italiana
Guglielmo Tell
Interview
Качество: HDTV 720p
Контейнер: TS
Видео кодек: H.264
Аудио кодек: AC3
Видео: MPEG4 Video (H264) 1280x720 50fps 9984 Kbps
Аудио: Dolby AC3 48000Hz 6ch 448kbps

Отчёт MediaInfo / BDInfo

GeneralID : 1 (0x1)Complete name : E:\P.F.M. In Classic - Da Mozart A Celebration.tsFormat : MPEG-TSFile size : 5.34 GiBDuration : 1h 9mnOverall bit rate mode : VariableOverall bit rate : 11.0 Mbps
VideoID : 4113 (0x1011)Menu ID : 1 (0x1)Format : AVCFormat/Info : Advanced Video CodecFormat profile : [email protected] settings, CABAC : YesFormat settings, ReFrames : 3 framesCodec ID : 27Duration : 1h 9mnBit rate : 9 984 KbpsWidth : 1 280 pixelsHeight : 720 pixelsDisplay aspect ratio : 16:9Frame rate : 50.000 fpsStandard : ComponentColor space : YUVChroma subsampling : 4:2:0Bit depth : 8 bitsScan type : ProgressiveBits/(Pixel*Frame) : 0.217Stream size : 4.86 GiB (91%)Color primaries : BT.709Transfer characteristics : BT.709Matrix coefficients : BT.709
AudioID : 4352 (0x1100)Menu ID : 1 (0x1)Format : AC-3Format/Info : Audio Coding 3Mode extension : CM (complete main)Format settings, Endianness : BigCodec ID : 129Duration : 1h 9mnBit rate mode : ConstantBit rate : 448 KbpsChannel(s) : 6 channelsChannel positions : Front: L C R, Side: L R, LFESampling rate : 48.0 KHzBit depth : 16 bitsCompression mode : LossyDelay relative to video : 11msStream size : 223 MiB (4%)Language : Italian
Other forum [Profile] [PM]
Display posts from previous:    
Reply to topic

The time now is: Today 10:07

All times are GMT + 3 Hours



You cannot post new topics in this forum
You cannot reply to topics in this forum
You cannot edit your posts in this forum
You cannot delete your posts in this forum
You cannot vote in polls in this forum
You cannot attach files in this forum
You cannot download files in this forum