Today is a free download without charge Download

Когда прилетают аисты (Петр Амиров, Зиновий Ройзман) [1978, кукольный мультфильм , DVB]

Reply to topic
 
Author
Message

Omen ®

Longevity: 7 years 11 months

Posts: 181087

Торрент-статистика

Post 14-Aug-2013 11:41

[Quote]

Когда прилетают аисты
Жанр: кукольный мультфильм
Год выпуска: 1978
Продолжительность: 00:17:48
Режиссёр: Петр Амиров, Зиновий Ройзман
Описание: мультфильм о том, как хозяин забыл на поле огородное пугало. Наступила осень, птицы потянулись к югу и пугалу надоело висеть без дела на шесте. Он попросил ослика, чтобы тот помог ему слезть. В это время стая аистов собиралась в дорогу. Вяснилось, что один аистёнок не может лететь, его ранили охотники. Пугало вызвалось ухаживать за больным аистёнком всю зиму...
Доп. информация: по мотивам пьесы Л.Лопейской и К.Кручининой "Аистенок и пугало"

Релиз группы:
Трансляция спутникового канала: "Карусель"
Качество видео: DVB
Формат видео: MPEG-PS
Видео: MPEG2 Video, 720x576, 25 fps, 3500 kbps
Аудио: MPEG Audio, 2 сh, 48 kHz, 192 kbps

MediaInfo

General
Complete name : D:\Когда прилетают аисты. (1978)_DVB by SLuMeP.mpg
Format : MPEG-PS
File size : 480 MiB
Duration : 17mn 48s
Overall bit rate mode : Variable
Overall bit rate : 3 768 Kbps
Video #224
ID : 224 (0xE0)
Format : MPEG Video
Format version : Version 2
Format profile : [email protected]
Format settings, BVOP : Yes
Format settings, Matrix : Custom
Format settings, GOP : M=3, N=12
Duration : 17mn 48s
Bit rate mode : Variable
Bit rate : 3 501 Kbps
Maximum bit rate : 5 000 Kbps
Width : 720 pixels
Height : 576 pixels
Display aspect ratio : 4:3
Frame rate : 25.000 fps
Standard : PAL
Color space : YUV
Chroma subsampling : 4:2:0
Bit depth : 8 bits
Scan type : Interlaced
Scan order : Top Field First
Compression mode : Lossy
Bits/(Pixel*Frame) : 0.338
Stream size : 446 MiB (93%)
Audio #192
ID : 192 (0xC0)
Format : MPEG Audio
Format version : Version 1
Format profile : Layer 2
Duration : 17mn 48s
Bit rate mode : Constant
Bit rate : 192 Kbps
Channel(s) : 2 channels
Sampling rate : 48.0 KHz
Compression mode : Lossy
Stream size : 24.5 MiB (5%)

Скриншоты

Other forum [Profile] [PM]
Similar theme
Forum Topic Author Torrent Replies Last Post
./templates/default/images/folder_dl.gif Медицина и Здоровье Анатолий Ситель | Ария для спины. Авторская программа, чтобы никогда не болели суставы (2015) [FB2] moralis
1 | 0

0 | 1761

13

2016-03-11 18:44
moralis Latest
Display posts from previous:    
Reply to topic

The time now is: Today 08:37

All times are GMT + 3 Hours



You cannot post new topics in this forum
You cannot reply to topics in this forum
You cannot edit your posts in this forum
You cannot delete your posts in this forum
You cannot vote in polls in this forum
You cannot attach files in this forum
You cannot download files in this forum