Today is a free download without charge Download

Сверчок (Александр Полушкин) [1982 г., рисованный мультфильм, DVB]

Reply to topic
 
Author
Message

Omen ®

Longevity: 7 years 11 months

Posts: 181087

Торрент-статистика

Post 14-Aug-2013 11:41

[Quote]

Сверчок
Жанр: рисованный мультфильм
Год выпуска: 1982
Продолжительность: 00:09:58
Режиссёр: Александр Полушкин)
Описание: мультфильм о том, как жил в лесу один жадный медвежонок. Дал ему как-то пожилой медведь, по имени Спиридон, бочонок мёда, сказав, чтобы он поделился с остальными. Однако Ваня медвежонок-жадина решил съесть весь его до капли сам. Другие зверята увидели это и решили проучить жадину …
Доп. информация: по мотивам сказки Братьев Бондаренко (Владимир и Вениамин Бондаренко)

Релиз группы:
Трансляция спутникового канала: "Карусель"
Качество видео: DVB
Формат видео: MPEG-PS
Видео: MPEG2 Video, 720x576, 25 fps, 3400 kbps
Аудио: MPEG Audio, 2 сh, 48 kHz, 192 kbps

MediaInfo

General
Complete name : D:\Сверчок. (1982)_DVB by SLuMeP.mpg
Format : MPEG-PS
File size : 261 MiB
Duration : 9mn 58s
Overall bit rate mode : Variable
Overall bit rate : 3 653 Kbps
Video #224
ID : 224 (0xE0)
Format : MPEG Video
Format version : Version 2
Format profile : [email protected]
Format settings, BVOP : Yes
Format settings, Matrix : Custom
Format settings, GOP : M=3, N=12
Duration : 9mn 58s
Bit rate mode : Variable
Bit rate : 3 388 Kbps
Maximum bit rate : 5 000 Kbps
Width : 720 pixels
Height : 576 pixels
Display aspect ratio : 4:3
Frame rate : 25.000 fps
Standard : PAL
Color space : YUV
Chroma subsampling : 4:2:0
Bit depth : 8 bits
Scan type : Interlaced
Scan order : Top Field First
Compression mode : Lossy
Bits/(Pixel*Frame) : 0.327
Stream size : 242 MiB (93%)
Audio #192
ID : 192 (0xC0)
Format : MPEG Audio
Format version : Version 1
Format profile : Layer 2
Duration : 9mn 58s
Bit rate mode : Constant
Bit rate : 192 Kbps
Channel(s) : 2 channels
Sampling rate : 48.0 KHz
Compression mode : Lossy
Stream size : 13.7 MiB (5%)

Скриншоты

Other forum [Profile] [PM]
Display posts from previous:    
Reply to topic

The time now is: Today 21:40

All times are GMT + 3 Hours



You cannot post new topics in this forum
You cannot reply to topics in this forum
You cannot edit your posts in this forum
You cannot delete your posts in this forum
You cannot vote in polls in this forum
You cannot attach files in this forum
You cannot download files in this forum