Today is a free download without charge Download

Перси Джексон и Море чудовищ 3Д / Percy Jackson: Sea of Monsters 3D (Тор Фройденталь / Thor Freudenthal) [2013, фэнтези, приключения, семейный, DCPrip] Half OverUnder / Вертикальная анаморфная стереопара. трейлер

Reply to topic
 
Author
Message

Omen ®

Longevity: 8 years 8 months

Posts: 181087

Торрент-статистика

Post 14-Aug-2013 03:35

[Quote]

Перси Джексон и Море чудовищ / Percy Jackson: Sea of Monsters«Где Боги - там и монстры»- Тип раздаваемого материала: трейлер
Год выпуска фильма: 2013
Страна: США
Жанр: фэнтези, приключения, семейный
Продолжительность: 00:02:35
Перевод: Полное дублированние
Русские субтитры: нет
Режиссер: Тор Фройденталь / Thor Freudenthal
В ролях: Логан Лерман, Александра Даддарио, Дуглас Смит, Ливэн Рамбин, Брэндон Т. Джексон, Джейк Эйбел, Энтони Хэд, Стэнли Туччи, Коннор Крэш Данн, Палома Квиатковски и др.-Описание: Перси отправляется на поиски своего друга, сатира Гроувера, попавшего в ловушку к циклопу Полифему. На кону стоит не только сатир, но и весь «Лагерь полукровок»: кто-то отравил священное дерево Талии, а это значит, что защита лагеря вот-вот падет и уже ничто не сможет удержать чудовищ от вторжения. Исцелить дерево способно только мифическое Золотое руно, спрятанное на острове Полифема — и, чтобы добраться до него, необходимо переплыть Море Чудовищ и сразиться с его обитателями — Сциллой и Харибдой, сладкоголосыми сиренами и коварной волшебницей Цирцеей.-Премьера (РФ): 22 августа 2013, «Двадцатый Век Фокс СНГ»-Качество: DCPrip
Формат видео: MKV
Формат 3D: Half OverUnder / Вертикальная анаморфная стереопара
Порядок ракурсов: левый ракурс первый
Видео кодек: H264
Аудио кодек: AC3
Видео: H264, 1920x1080, 16:9, 24.000 fps, 35.7 Mbps
Аудио: Rus, AC-3, 48.0 KHz, 640 Kbps, 6 channels, Front: L C R, Side: L R, LFE

MediaInfo

General
Unique ID : 232130880981496609421343431821245962675 (0xAEA2C80E69BC53D29769A331D80259B3)
Complete name : E:\[DCPrip] Trailers\PERCY-JACKSON2_TRL-F-3D_S_RU-XX_RU-6+_51.mkv
Format : Matroska
Format version : Version 4 / Version 2
File size : 659 MiB
Duration : 2mn 34s
Overall bit rate : 35.7 Mbps
Encoded date : UTC 2013-08-09 01:20:25
Writing application : mkvmerge v6.3.0 ('You can't stop me!') built on Jun 28 2013 20:09:41
Writing library : libebml v1.3.0 + libmatroska v1.4.0
Video
ID : 1
Format : AVC
Format/Info : Advanced Video Codec
Format profile : [email protected]
Format settings, CABAC : Yes
Format settings, ReFrames : 4 frames
Codec ID : V_MPEG4/ISO/AVC
Duration : 2mn 34s
Bit rate : 35.0 Mbps
Width : 1 920 pixels
Height : 1 080 pixels
Display aspect ratio : 16:9
Frame rate mode : Constant
Frame rate : 24.000 fps
Color space : YUV
Chroma subsampling : 4:2:0
Bit depth : 8 bits
Scan type : Progressive
Bits/(Pixel*Frame) : 0.703
Stream size : 634 MiB (96%)
Title : PERCY-JACKSON2_TRL-F-3D_S_RU-XX_RU-6+
Writing library : x264 core 120
Encoding settings : cabac=1 / ref=3 / deblock=1:0:0 / analyse=0x3:0x113 / me=hex / subme=7 / psy=1 / psy_rd=1.00:0.00 / mixed_ref=1 / me_range=16 / chroma_me=1 / trellis=1 / 8x8dct=1 / cqm=0 / deadzone=21,11 / fast_pskip=1 / chroma_qp_offset=-2 / threads=12 / sliced_threads=0 / nr=0 / decimate=1 / interlaced=0 / bluray_compat=0 / constrained_intra=0 / bframes=3 / b_pyramid=2 / b_adapt=2 / b_bias=0 / direct=1 / weightb=1 / open_gop=0 / weightp=2 / keyint=240 / keyint_min=24 / scenecut=40 / intra_refresh=0 / rc_lookahead=50 / rc=2pass / mbtree=1 / bitrate=35000 / ratetol=1.0 / qcomp=0.60 / qpmin=3 / qpmax=69 / qpstep=4 / cplxblur=20.0 / qblur=0.5 / ip_ratio=1.40 / aq=1:1.00
Language : Russian
Default : Yes
Forced : No
Color primaries : BT.709
Transfer characteristics : BT.709
Matrix coefficients : BT.709
Audio
ID : 2
Format : AC-3
Format/Info : Audio Coding 3
Mode extension : CM (complete main)
Format settings, Endianness : Big
Codec ID : A_AC3
Duration : 2mn 34s
Bit rate mode : Constant
Bit rate : 640 Kbps
Channel(s) : 6 channels
Channel positions : Front: L C R, Side: L R, LFE
Sampling rate : 48.0 KHz
Bit depth : 16 bits
Compression mode : Lossy
Stream size : 11.8 MiB (2%)
Title : AC-3 5.1
Language : Russian
Default : Yes
Forced : No

Скриншоты

Other forum [Profile] [PM]
Display posts from previous:    
Reply to topic

The time now is: Today 08:11

All times are GMT + 3 Hours



You cannot post new topics in this forum
You cannot reply to topics in this forum
You cannot edit your posts in this forum
You cannot delete your posts in this forum
You cannot vote in polls in this forum
You cannot attach files in this forum
You cannot download files in this forum