Today is a free download without charge Download

Форсаж 5 / Fast Five (Джастин Лин / Justin Lin) [2011 г., США, Боевик, триллер, криминал, BDRip 1080p] [Extended Cut]

Reply to topic
 
Author
Message

Varius ®

Gender:

Longevity: 9 years 7 months

Posts: 2416

Location: Hell

Торрент-статистика

Post 10-Sep-2011 19:19

[Quote]

Форсаж 5 / Fast Five
-Страна: США
Жанр: Боевик, триллер, криминал
Год выпуска: 2011
Продолжительность: 02:11:35
Режиссер: Джастин Лин / Justin Lin
В ролях: Вин Дизель, Пол Уокер, Джордана Брюстер, Тайриз Гибсон, Лудакрис, Эльза Патаки, Галь Гадот, Тего Калдерон, Дон Омар, Мэтт Шульце
Перевод: Профессиональный (дублированный)-Описание: Освободив Доминика из-под стражи, Брайан и Миа Торетто были вынуждены пересечь несколько границ, чтобы укрыться от властей. Загнанным в угол с Рио-де-Жанейро, им предстоит выполнить последнюю работу во имя собственной свободы. Собирая команду самых лучших гонщиков, они понимают, что противостоять им предстоит коррумпированному дельцу, желающему их смерти. Но он не единственный, кто идет по следу героев. Крутой федеральный агент Люк Хоббс всегда выходит победителем — а в этот раз заданием его отряда стала поимка Дома и Брайана.-За сабы спасибо HANSMERy.
В сабы добавил непереведенные фразы в дубляже.-Тип релиза: BDRip [Sample]
Контейнер: MKV
Видео: AVC, 1920x816, 23.976 fps, 14.3 Mbps
Аудио №1: Русский DTS, 5.1, 48 kHz, ~755 kbps | Дубляж, BD CEE
Аудио №2: Английский DTS, 5.1, 48 kHz, ~1510 kbps
Аудио №3: Английский AC3, 2.0, 48 kHz, ~192 kbps | Commentary
Субтитры: Русский(forced), русский(full goblin), английский(sdh), английский(commentary)-Скриншоты:
                         

mi

Код:
General
Unique ID                        : 174085262651487926424041765117628870926 (0x82F79A1E18207E64AB28544E7BA5710E)
Complete name                    : Fast.Five.2011.BDRip.1080p.Extended.Cut.Rus.Eng.mkv
Format                           : Matroska
Format version                   : Version 2
File size                        : 15.4 GiB
Duration                         : 2h 11mn
Overall bit rate                 : 16.8 Mbps
Movie name                       : Fast Five [2011]
Encoded date                     : UTC 2011-09-09 15:39:13
Writing application              : mkvmerge v4.9.1 ('Ich will') built on Jul 11 2011 23:53:15
Writing library                  : libebml v1.2.1 + libmatroska v1.1.1
Video
ID                               : 1
Format                           : AVC
Format/Info                      : Advanced Video Codec
Format profile                   : [email protected]
Format settings, CABAC           : Yes
Format settings, ReFrames        : 5 frames
Codec ID                         : V_MPEG4/ISO/AVC
Duration                         : 2h 11mn
Bit rate                         : 14.3 Mbps
Width                            : 1 920 pixels
Height                           : 816 pixels
Display aspect ratio             : 2.35:1
Frame rate                       : 23.976 fps
Color space                      : YUV
Chroma subsampling               : 4:2:0
Bit depth                        : 8 bits
Scan type                        : Progressive
Bits/(Pixel*Frame)               : 0.381
Stream size                      : 12.8 GiB (83%)
Title                            : Fast Five [2011]
Writing library                  : x264 core 116 r2037 f8ebd4a
Encoding settings                : cabac=1 / ref=5 / deblock=1:-3:-3 / analyse=0x3:0x113 / me=umh / subme=11 / psy=1 / psy_rd=1.00:0.05 / mixed_ref=1 / me_range=48 / chroma_me=1 / trellis=2 / 8x8dct=1 / cqm=0 / deadzone=21,11 / fast_pskip=0 / chroma_qp_offset=-3 / threads=6 / sliced_threads=0 / nr=0 / decimate=0 / interlaced=0 / bluray_compat=0 / constrained_intra=0 / bframes=8 / b_pyramid=2 / b_adapt=2 / b_bias=0 / direct=3 / weightb=1 / open_gop=0 / weightp=2 / keyint=250 / keyint_min=23 / scenecut=40 / intra_refresh=0 / rc_lookahead=100 / rc=2pass / mbtree=1 / bitrate=14300 / ratetol=1.0 / qcomp=0.70 / qpmin=0 / qpmax=69 / qpstep=4 / cplxblur=20.0 / qblur=0.5 / vbv_maxrate=40000 / vbv_bufsize=45000 / nal_hrd=none / ip_ratio=1.40 / aq=1:0.80
Language                         : English
Audio #1
ID                               : 2
Format                           : DTS
Format/Info                      : Digital Theater Systems
Codec ID                         : A_DTS
Duration                         : 2h 11mn
Bit rate mode                    : Constant
Bit rate                         : 755 Kbps
Channel(s)                       : 6 channels
Channel positions                : Front: L C R, Side: L R, LFE
Sampling rate                    : 48.0 KHz
Bit depth                        : 24 bits
Compression mode                 : Lossy
Stream size                      : 710 MiB (5%)
Title                            : RUS
Language                         : Russian
Audio #2
ID                               : 3
Format                           : DTS
Format/Info                      : Digital Theater Systems
Codec ID                         : A_DTS
Duration                         : 2h 11mn
Bit rate mode                    : Constant
Bit rate                         : 1 510 Kbps
Channel(s)                       : 6 channels
Channel positions                : Front: L C R, Side: L R, LFE
Sampling rate                    : 48.0 KHz
Bit depth                        : 24 bits
Compression mode                 : Lossy
Stream size                      : 1.39 GiB (9%)
Title                            : ENG
Language                         : English
Audio #3
ID                               : 4
Format                           : AC-3
Format/Info                      : Audio Coding 3
Format profile                   : Dolby Digital
Mode extension                   : CM (complete main)
Codec ID                         : A_AC3
Duration                         : 2h 11mn
Bit rate mode                    : Constant
Bit rate                         : 192 Kbps
Channel(s)                       : 2 channels
Channel positions                : Front: L R
Sampling rate                    : 48.0 KHz
Bit depth                        : 16 bits
Compression mode                 : Lossy
Stream size                      : 181 MiB (1%)
Title                            : ENG, Commentaries
Language                         : English
Text #1
ID                               : 5
Format                           : UTF-8
Codec ID                         : S_TEXT/UTF8
Codec ID/Info                    : UTF-8 Plain Text
Title                            : RUS, Forced
Language                         : Russian
Text #2
ID                               : 6
Format                           : UTF-8
Codec ID                         : S_TEXT/UTF8
Codec ID/Info                    : UTF-8 Plain Text
Title                            : RUS, Full
Language                         : Russian
Text #3
ID                               : 7
Format                           : UTF-8
Codec ID                         : S_TEXT/UTF8
Codec ID/Info                    : UTF-8 Plain Text
Title                            : ENG
Language                         : English
Text #4
ID                               : 8
Format                           : UTF-8
Codec ID                         : S_TEXT/UTF8
Codec ID/Info                    : UTF-8 Plain Text
Title                            : ENG, Commentaries
Language                         : English
Menu
00:00:00.000                     : en:00:00:00.000
00:07:45.715                     : en:00:07:45.715
00:17:29.465                     : en:00:17:29.465
00:23:01.839                     : en:00:23:01.839
00:28:21.575                     : en:00:28:21.575
00:35:05.353                     : en:00:35:05.353
00:40:56.037                     : en:00:40:56.037
00:48:51.303                     : en:00:48:51.303
00:55:29.993                     : en:00:55:29.993
01:04:07.552                     : en:01:04:07.552
01:11:42.256                     : en:01:11:42.256
01:19:23.467                     : en:01:19:23.467
01:23:33.800                     : en:01:23:33.800
01:28:56.331                     : en:01:28:56.331
01:32:57.489                     : en:01:32:57.489
01:40:27.104                     : en:01:40:27.104
01:48:14.530                     : en:01:48:14.530
01:56:03.915                     : en:01:56:03.915
02:00:29.013                     : en:02:00:29.013
02:04:38.096                     : en:02:04:38.096

_________________

Создавая "Новую папку", не считайте себя Создателем - это право Вам дано Админом




Last edited by Varius on 2011-09-10 20:37; edited 1 time in total
Other forum [Profile] [PM]
Similar theme
Forum Topic Author Torrent Replies Last Post
./templates/default/images/folder_dl.gif Новинки (HD|DVD|BD|WEB|TV|SAT|PDTV|-Rip) Форсаж: Хоббс и Шоу / Fast & Furious Presents: Hobbs & Shaw (Дэвид Литч) [2019 г., боевик, приключения, WEB-DLRip]DUB| Локализованная версия | Line kilmister777
1 | 0

0 | 345

0

2019-09-27 08:24
kilmister777 Latest
Display posts from previous:    
Reply to topic

The time now is: Today 20:38

All times are GMT + 3 Hours



You cannot post new topics in this forum
You cannot reply to topics in this forum
You cannot edit your posts in this forum
You cannot delete your posts in this forum
You cannot vote in polls in this forum
You cannot attach files in this forum
You cannot download files in this forum