Today is a free download without charge Download

Nakka - Супергерой [2013, Grindcore / Death Metal, Master]

Reply to topic
 
Author
Message

Omen ®

Longevity: 8 years 4 months

Posts: 181087

Торрент-статистика

Post 13-Aug-2013 15:25

[Quote]

Nakka - Супергерой
Жанр: Grindcore / Death Metal
Продолжительность: 00:05:01
Год выпуска: 2013
Качество: HDCamRip
Контейнер: MP4
Видео кодек: AVC
Аудио кодек: AAC
Видео: AVC 1920X1080 24.8mbps 29.970fps
Аудио: AAC 157kbps 48.0kHz 2ch

Отчёт MediaInfo

ОбщееПолное имя : D:\µTorrent\Nakka - Супергерой.mp4Формат : MPEG-4Профиль формата : Base Media / Version 2Идентификатор кодека : mp42Размер файла : 896 МбайтПродолжительность : 5 м. 1 с.Режим общего битрейта : ПеременныйОбщий поток : 25,0 Мбит/секДата кодирования : UTC 2013-08-07 05:10:54Дата пометки : UTC 2013-08-07 05:10:54©TIM : 00:00:00:00©TSC : 30000©TSZ : 1001
ВидеоИдентификатор : 1Формат : AVCФормат/Информация : Advanced Video CodecПрофиль формата : [email protected]Параметр CABAC формата : ДаПараметр ReFrames формата : 3 кадраИдентификатор кодека : avc1Идентификатор кодека/Информация : Advanced Video CodingПродолжительность : 5 м. 1 с.Битрейт : 24,8 Мбит/секШирина : 1920 пикселейВысота : 1080 пикселейСоотношение сторон : 16:9Режим частоты кадров : ПостоянныйЧастота кадров : 29,970 кадров/секСтандарт вещания : NTSCЦветовое пространство : YUVСубдискретизация насыщенности : 4:2:0Битовая глубина : 8 битТип развёртки : ПрогрессивнаяБит/(Пиксели*Кадры) : 0.399Размер потока : 890 Мбайт (99%)Язык : EnglishДата кодирования : UTC 2013-08-07 05:10:54Дата пометки : UTC 2013-08-07 05:10:54
АудиоИдентификатор : 2Формат : AACФормат/Информация : Advanced Audio CodecПрофиль формата : LCИдентификатор кодека : 40Продолжительность : 5 м. 1 с.Продолжительность оригинала : 5 м. 1 с.Вид битрейта : ПеременныйБитрейт : 157 Кбит/секМаксимальный битрейт : 250 Кбит/секКаналы : 2 каналаРасположение каналов : Front: L RЧастота : 48,0 КГцМетод сжатия : С потерямиРазмер потока : 5,65 Мбайт (1%)Размер потока оригинала : 5,65 Мбайт (1%)Язык : EnglishДата кодирования : UTC 2013-08-07 05:10:54Дата пометки : UTC 2013-08-07 05:10:54

Скриншоты

Other forum [Profile] [PM]
Display posts from previous:    
Reply to topic

The time now is: Today 21:11

All times are GMT + 3 Hours



You cannot post new topics in this forum
You cannot reply to topics in this forum
You cannot edit your posts in this forum
You cannot delete your posts in this forum
You cannot vote in polls in this forum
You cannot attach files in this forum
You cannot download files in this forum