Today is a free download without charge Download

Linkin Park - Chiba City, Japan, Summer Sonic (10.08.2013) [WOWOW] [2013, Alternative Rock, HDTV 1080i]

Reply to topic
 
Author
Message

Omen ®

Longevity: 8 years 4 months

Posts: 181087

Торрент-статистика

Post 13-Aug-2013 15:25

[Quote]

Linkin Park - Chiba City, Japan, Summer Sonic (10.08.2013) [WOWOW]
Жанр: Alternative Rock
Продолжительность: 11m:36s
Год выпуска: 2013
Описание:
10 August 2013
Summer Sonic - Marine Stage
Chiba City, Japan
QVC Marine Field

Треклист:
01. A Place For My Head
02. Papercut
03. Given Up
Качество: HDTV 1080i
Контейнер: TS
Видео кодек: MPEG2
Видео: 1920x1080 | 19.3 Mbps | 29.970 fps
Аудио: AAC 2 | 192 Kbps | 2 ch | 48.0 KHz

Отчёт MediaInfo / BDInfo

GeneralID : 1 (0x1)Complete name : LINKIN PARK.SUMMER SONIC 2013 DAY1.HD.1080i-rei.tsFormat : MPEG-TSFile size : 1.66 GiBDuration : 11mn 36sOverall bit rate mode : VariableOverall bit rate : 20.5 MbpsMaximum Overall bit rate : 35.5 Mbps
VideoID : 4113 (0x1011)Menu ID : 1 (0x1)Format : MPEG VideoFormat version : Version 2Format profile : [email protected] settings, BVOP : YesFormat settings, Matrix : CustomFormat settings, GOP : M=3, N=15Codec ID : 2Duration : 11mn 36sBit rate mode : VariableBit rate : 19.3 MbpsWidth : 1 920 pixelsHeight : 1 080 pixelsDisplay aspect ratio : 16:9Frame rate : 29.970 fpsColor space : YUVChroma subsampling : 4:2:0Bit depth : 8 bitsScan type : InterlacedScan order : Top Field FirstCompression mode : LossyBits/(Pixel*Frame) : 0.311Time code of first frame : 00:00:00:00Time code source : Group of pictures headerStream size : 1.56 GiB (94%)Color primaries : BT.709Transfer characteristics : BT.709Matrix coefficients : BT.709
AudioID : 4352 (0x1100)Menu ID : 1 (0x1)Format : AACFormat/Info : Advanced Audio CodecFormat version : Version 2Format profile : LCMuxing mode : ADTSCodec ID : 15Duration : 11mn 36sBit rate mode : VariableBit rate : 192 KbpsChannel(s) : 2 channelsChannel positions : Front: L RSampling rate : 48.0 KHzCompression mode : LossyDelay relative to video : -11msStream size : 15.9 MiB (1%)
Other forum [Profile] [PM]
Display posts from previous:    
Reply to topic

The time now is: Today 19:55

All times are GMT + 3 Hours



You cannot post new topics in this forum
You cannot reply to topics in this forum
You cannot edit your posts in this forum
You cannot delete your posts in this forum
You cannot vote in polls in this forum
You cannot attach files in this forum
You cannot download files in this forum