Today is a free download without charge Download

Anthrax - Wacken 2013 [2013, Heavy metal/Thrash metal/Alternative metal, HDTV 720p]

Reply to topic
 
Author
Message

Omen ®

Longevity: 8 years 3 months

Posts: 181087

Торрент-статистика

Post 13-Aug-2013 07:12

[Quote]

Anthrax - Wacken 2013
Жанр: Heavy metal/Thrash metal/Alternative metal
Продолжительность: 00:58:19
Год выпуска: 2013
Описание: Выступление американского трэш-метал бэнда Anthrax на Heavy-Metal фестивале Wacken 2013 в Германии.
Доп. информация: Собственная запись со спутникового канала ZDF.Kultur 2013 aug12
Треклист: Caught In A Mosh
Efilnikufesin (N.F.L.)
In The End
Deathrider
TNT
Indians
Got The Time
Fight'em Till You Can't
Madhouse
Качество: HDTV 720p
Контейнер: TS
Видео кодек: H.264
Аудио кодек: AC3
Видео: Mpeg4 AVC, 1280x720, kbps, 50 fps Progressive
Аудио: AC3, 448 kbps, 48 kHz, stereo
Аудио 2: MP2, 256 kbps, 48 kHz, stereo
Аудио 3: MP2, 192 kbps, 48 kHz, stereo

Отчёт MediaInfo / BDInfo

GeneralID : 1 (0x1)Complete name : D:\Downloads\Anthrax - Wacken 2013.tsFormat : MPEG-TSFile size : 6.05 GiBDuration : 58mn 19sOverall bit rate mode : VariableOverall bit rate : 14.9 Mbps
VideoID : 6410 (0x190A)Menu ID : 1 (0x1)Format : AVCFormat/Info : Advanced Video CodecFormat profile : [email protected] settings, CABAC : YesFormat settings, ReFrames : 6 framesCodec ID : 27Duration : 58mn 18sBit rate : 13.0 MbpsWidth : 1 280 pixelsHeight : 720 pixelsDisplay aspect ratio : 16:9Frame rate : 50.000 fpsColor space : YUVChroma subsampling : 4:2:0Bit depth : 8 bitsScan type : ProgressiveBits/(Pixel*Frame) : 0.283Stream size : 5.30 GiB (88%)Color primaries : BT.709Transfer characteristics : BT.709Matrix coefficients : BT.709
Audio #1ID : 6420 (0x1914)Menu ID : 1 (0x1)Format : MPEG AudioFormat version : Version 1Format profile : Layer 2Codec ID : 3Duration : 58mn 18sBit rate mode : ConstantBit rate : 256 KbpsChannel(s) : 2 channelsSampling rate : 48.0 KHzCompression mode : LossyStream size : 107 MiB (2%)Language : German
Audio #2ID : 6421 (0x1915)Menu ID : 1 (0x1)Format : MPEG AudioFormat version : Version 1Format profile : Layer 2Codec ID : 3Duration : 58mn 18sBit rate mode : ConstantBit rate : 192 KbpsChannel(s) : 2 channelsSampling rate : 48.0 KHzCompression mode : LossyStream size : 80.1 MiB (1%)
Audio #3ID : 6422 (0x1916)Menu ID : 1 (0x1)Format : AC-3Format/Info : Audio Coding 3Mode extension : CM (complete main)Format settings, Endianness : BigCodec ID : 6Duration : 58mn 18sBit rate mode : ConstantBit rate : 448 KbpsChannel(s) : 2 channelsChannel positions : Front: L RSampling rate : 48.0 KHzBit depth : 16 bitsCompression mode : LossyStream size : 187 MiB (3%)Language : German
Audio #4ID : 6423 (0x1917)Menu ID : 1 (0x1)Format : MPEG AudioFormat version : Version 1Format profile : Layer 2Codec ID : 3Duration : 58mn 18sBit rate mode : ConstantBit rate : 192 KbpsChannel(s) : 2 channelsSampling rate : 48.0 KHzCompression mode : LossyStream size : 80.1 MiB (1%)Language : Multiple languages
TextID : 6430 (0x191E)-100Menu ID : 1 (0x1)Format : TeletextLanguage : German
MenuID : 6400 (0x1900)Menu ID : 1 (0x1)Duration : 58mn 19sList : 6410 (0x190A) (AVC) / 6420 (0x1914) (MPEG Audio, German) / 6421 (0x1915) (MPEG Audio) / 6422 (0x1916) (AC-3, German) / 6423 (0x1917) (MPEG Audio, Multiple languages) / 6430 (0x191E) ()Language : / German / / German / Multiple languages

Скриншоты

Other forum [Profile] [PM]
Display posts from previous:    
Reply to topic

The time now is: Today 10:37

All times are GMT + 3 Hours



You cannot post new topics in this forum
You cannot reply to topics in this forum
You cannot edit your posts in this forum
You cannot delete your posts in this forum
You cannot vote in polls in this forum
You cannot attach files in this forum
You cannot download files in this forum