Today is a free download without charge Download

Касабланка / Casablanca (Майкл Кёртиц) [1942 г., драма, мелодрама, военный, BDRip720p]

Reply to topic
 
Author
Message

Delia ®

Gender:

Longevity: 9 years 6 months

Posts: 1821

Торрент-статистика

Post 10-Sep-2011 10:12

[Quote]

Касабланка Casablanca Год выпуска: 1942
Страна: США
Жанр: драма, мелодрама, военный
Продолжительность: 01:42:34
Перевод: Профессиональный (многоголосый, закадровый)
Режиссер: Майкл Кёртиц
Продюссер: Хэл Б. Уоллис, Джек Л. Уорнер
Сценарий: Мюррэй Барнетт, Джоан Элисон, Джулиус Дж. Эпштейн
Бюджет: $950 000
Премьера в мире: 26 ноября 1942
В ролях: Хамфри Богарт, Ингрид Бергман, Пол Хенрейд, Клод Рейнс, Конрад Фейдт, Сидни Гринстрит, Петер Лорре, С.З. Сакалл, Мадлен ЛеБо, Дули Уилсон
Описание: Оставивший родину американец Рик Блэйн, владелец игорного клуба в Касабланке, случайно встречается с покинувшей его несколько лет назад возлюбленной, Ильзой, которая приехала в город вместе со своим нынешним мужем, борцом антифашистского сопротивления Виктором Лазло.По их следу идут немцы, и Ильза пытается упросить Рика отдать принадлежащие ему важные документы, которые позволят Виктору бежать из Касабланки, чтобы продолжить свою борьбу.
Качество: BDRip720p
Формат: MKV
Видео кодек: H.264
Аудио кодек: AC3
Видео: English, 5269 Кбит/сек, 980*720 (1,400), в 23,976 кадр/сек, AVC ([email protected])
Аудио: Russian, 192 Кбит/сек, 48,0 КГц, 16 бит, 2 канала(ов), AC-3
Аудио: Russian, 448 Кбит/сек, 48,0 КГц, 16 бит, 6 канала(ов), AC-3
Аудио: English, 192 Кбит/сек, 48,0 КГц, 16 бит, 1 канал, AC-3
Субтитры:English ( VobSub)

Награды:

Оскар, 1944 год
Победитель (3):
Лучший фильм
Лучший режиссер (Майкл Кёртиц)
Лучший адаптированный сценарий
Номинации (5):
Лучшая мужская роль (Хамфри Богарт)
Лучшая мужская роль второго плана (Клод Рейнс)
Лучшая работа оператора (ч/б фильмы)
Лучший монтаж
Лучший саундтрек для драматических/комедийных картин

MI:

Общее
Уникальный идентификатор : 198801934494580503353569325650532313632 (0x958FDC2014D1FBA88EFDA963DAC32A20)
Полное имя : E:\торрент\Casablanca (1942) BDRip720p.mkv
Формат : Matroska
Размер файла : 4,38 Гбайт
Продолжительность : 1 ч. 42 м.
Общий поток : 6108 Кбит/сек
Дата кодирования : UTC 2011-09-10 05:46:01
Программа кодирования : mkvmerge v4.9.1 ('Ich will') built on Jul 11 2011 23:53:15
Библиотека кодирования : libebml v1.2.1 + libmatroska v1.1.1
Видео
Идентификатор : 1
Формат : AVC
Формат/Информация : Advanced Video Codec
Профиль формата : [email protected]
Параметр CABAC формата : Да
Параметр ReFrames формата : 8 кадры
Идентификатор кодека : V_MPEG4/ISO/AVC
Продолжительность : 1 ч. 42 м.
Битрейт : 5269 Кбит/сек
Ширина : 980 пикс.
Высота : 720 пикс.
Соотношение сторон : 1,400
Частота кадров : 23,976 кадр/сек
Цветовое пространство : YUV
Подвыборка цветности : 4:2:0
Битовая глубина : 8 бит
Тип развёртки : Прогрессивная
Бит/(Пиксели*Кадры) : 0.311
Размер потока : 3,69 Гбайт (84%)
Библиотека кодирования : x264 core 116 r2074 2641b9e
Настройки программы : cabac=1 / ref=8 / deblock=1:-3:-3 / analyse=0x3:0x133 / me=esa / subme=9 / psy=1 / psy_rd=1.00:0.15 / mixed_ref=1 / me_range=32 / chroma_me=1 / trellis=2 / 8x8dct=1 / cqm=0 / deadzone=21,11 / fast_pskip=0 / chroma_qp_offset=-3 / threads=6 / sliced_threads=0 / nr=0 / decimate=0 / interlaced=0 / bluray_compat=0 / constrained_intra=0 / bframes=6 / b_pyramid=2 / b_adapt=2 / b_bias=0 / direct=3 / weightb=1 / open_gop=0 / weightp=2 / keyint=250 / keyint_min=23 / scenecut=40 / intra_refresh=0 / rc_lookahead=50 / rc=2pass / mbtree=1 / bitrate=5269 / ratetol=1.0 / qcomp=0.80 / qpmin=10 / qpmax=51 / qpstep=4 / cplxblur=20.0 / qblur=0.5 / ip_ratio=1.40 / aq=1:1.00
Язык : English
Аудио #1
Идентификатор : 2
Формат : AC-3
Формат/Информация : Audio Coding 3
Расширение режима : CM (complete main)
Идентификатор кодека : A_AC3
Продолжительность : 1 ч. 42 м.
Вид битрейта : Постоянный
Битрейт : 192 Кбит/сек
Канал(ы) : 2 канала(ов)
Расположение каналов : Front: L R
Частота : 48,0 КГц
Битовая глубина : 16 бит
Метод сжатия : С потерями
Размер потока : 141 Мбайт (3%)
Язык : Russian
Аудио #2
Идентификатор : 3
Формат : AC-3
Формат/Информация : Audio Coding 3
Расширение режима : CM (complete main)
Идентификатор кодека : A_AC3
Продолжительность : 1 ч. 42 м.
Вид битрейта : Постоянный
Битрейт : 448 Кбит/сек
Канал(ы) : 6 канала(ов)
Расположение каналов : Front: L C R, Side: L R, LFE
Частота : 48,0 КГц
Битовая глубина : 16 бит
Метод сжатия : С потерями
Размер потока : 329 Мбайт (7%)
Язык : Russian
Аудио #3
Идентификатор : 4
Формат : AC-3
Формат/Информация : Audio Coding 3
Расширение режима : CM (complete main)
Идентификатор кодека : A_AC3
Продолжительность : 1 ч. 42 м.
Вид битрейта : Постоянный
Битрейт : 192 Кбит/сек
Канал(ы) : 1 канал
Расположение каналов : Front: C
Частота : 48,0 КГц
Битовая глубина : 16 бит
Метод сжатия : С потерями
Размер потока : 141 Мбайт (3%)
Язык : English
Текст
Идентификатор : 5
Формат : VobSub
Режим смешивания : zlib
Идентификатор кодека : S_VOBSUB
Идентификатор кодека/Информация : The same subtitle format used on DVDs
Язык : English
Меню
00:00:00.000 : en:00:00:00.000
00:02:22.392 : en:00:02:22.392
00:06:28.972 : en:00:06:28.972
00:08:50.780 : en:00:08:50.780
00:12:41.803 : en:00:12:41.803
00:13:54.917 : en:00:13:54.917
00:17:19.163 : en:00:17:19.163
00:20:39.363 : en:00:20:39.363
00:22:51.120 : en:00:22:51.120
00:25:18.475 : en:00:25:18.475
00:28:58.612 : en:00:28:58.612
00:31:14.998 : en:00:31:14.998
00:33:41.978 : en:00:33:41.978
00:36:07.332 : en:00:36:07.332
00:38:49.661 : en:00:38:49.661
00:42:17.660 : en:00:42:17.660
00:47:58.667 : en:00:47:58.667
00:50:58.222 : en:00:50:58.222
00:54:39.485 : en:00:54:39.485
00:58:31.842 : en:00:58:31.842
01:01:11.376 : en:01:01:11.376
01:04:43.671 : en:01:04:43.671
01:07:15.156 : en:01:07:15.156
01:10:06.911 : en:01:10:06.911
01:15:20.725 : en:01:15:20.725
01:18:29.288 : en:01:18:29.288
01:21:23.337 : en:01:21:23.337
01:25:34.713 : en:01:25:34.713
01:28:50.951 : en:01:28:50.951
01:32:09.983 : en:01:32:09.983
01:35:24.135 : en:01:35:24.135
01:39:25.668 : en:01:39:25.668

Скриншоты

         

_________________
Человек – это канат, натянутый между животным и сверхчеловеком, – канат над пропастью.
В человеке ценно то, что он мост, а не цель. Фридрих Ницше


Last edited by Delia on 2011-09-10 10:17; edited 1 time in total
Other forum [Profile] [PM]
Display posts from previous:    
Reply to topic

The time now is: Today 20:43

All times are GMT + 3 Hours



You cannot post new topics in this forum
You cannot reply to topics in this forum
You cannot edit your posts in this forum
You cannot delete your posts in this forum
You cannot vote in polls in this forum
You cannot attach files in this forum
You cannot download files in this forum