Today is a free download without charge Download

Кирпичи (СПб, Аврора, 16 марта 2013) [2013, Hardcore, Rapcore, HDCamRip]

Reply to topic
 
Author
Message

Omen ®

Longevity: 8 years 4 months

Posts: 181087

Торрент-статистика

Post 12-Aug-2013 14:55

[Quote]

Кирпичи (СПб, Аврора, 16 марта 2013)
Жанр: Hardcore, Rapcore
Продолжительность: 20:10
Год выпуска: 2013
Описание: 6 песен с концерта.
Трэк-лист:
01. Золотой гвоздь программы
02. Торчи П. торчи
03. Get Down
04. Школьнички
05. Кирпичи 96
06. Байка
Качество: HDCamRip
Контейнер: MOV
Видео кодек: AVC
Аудио кодек: AC3
Видео: AVC, 1920x1080, 13000 kbps, 25 fps
Аудио: AAC, 128 kbps, 48 Ghz, 2ch
Это видео на Youtube: http://www.youtube.com/watch?v=LLu9zBVWo8g

Отчёт MediaInfo / BDInfo

ОбщееПолное имя : /Volumes/1TB/Clips/Мои видео/2013-03-16 Кирпичи, Аврора.movФормат : MPEG-4Профиль формата : QuickTimeИдентификатор кодека : qtРазмер файла : 1,85 ГбайтПродолжительность : 20 м.Режим общего битрейта : ПеременныйОбщий поток : 13,1 Мбит/секДата кодирования : UTC 2013-03-18 20:40:24Дата пометки : UTC 2013-03-18 21:40:58Библиотека кодирования : Apple QuickTime
ВидеоИдентификатор : 1Формат : AVCФормат/Информация : Advanced Video CodecПрофиль формата : [email protected]Параметр CABAC формата : НетПараметр ReFrames формата : 2 кадраПараметр GOP формата : M=2, N=60Идентификатор кодека : avc1Идентификатор кодека/Информация : Advanced Video CodingПродолжительность : 20 м.Вид битрейта : ПеременныйБитрейт : 13,0 Мбит/секМаксимальный битрейт : 12,7 Мбит/секШирина : 1920 пикселейВысота : 1080 пикселейСоотношение сторон : 16:9Режим частоты кадров : ПостоянныйЧастота кадров : 25,000 кадров/секЦветовое пространство : YUVСубдискретизация насыщенности : 4:2:0Битовая глубина : 8 битТип развёртки : ПрогрессивнаяБит/(Пиксели*Кадры) : 0.250Размер потока : 1,83 Гбайт (99%)Заголовок : Core Media VideoДата кодирования : UTC 2013-03-18 20:40:25Дата пометки : UTC 2013-03-18 21:40:58Основные цвета : BT.709Характеристики трансфера : BT.709Коэффициенты матрицы : BT.709
АудиоИдентификатор : 2Формат : AACФормат/Информация : Advanced Audio CodecПрофиль формата : LCИдентификатор кодека : 40Продолжительность : 20 м.Продолжительность оригинала : 20 м.Вид битрейта : ПостоянныйБитрейт : 128 Кбит/секКаналы : 2 каналаРасположение каналов : Front: L RЧастота : 48,0 КГцМетод сжатия : С потерямиРазмер потока : 18,7 Мбайт (1%)Размер потока оригинала : 18,7 Мбайт (1%)Заголовок : Core Media AudioДата кодирования : UTC 2013-03-18 20:40:25Дата пометки : UTC 2013-03-18 21:40:58
ПрочееИдентификатор : 3Type : Time codeФормат : QuickTime TCПродолжительность : 20 м.Time code of first frame : 00:00:00:00Time code settings : StripedЗаголовок : Core Media Time CodeДата кодирования : UTC 2013-03-18 20:40:25Дата пометки : UTC 2013-03-18 21:40:58

Скриншоты

Other forum [Profile] [PM]
Display posts from previous:    
Reply to topic

The time now is: Today 10:37

All times are GMT + 3 Hours



You cannot post new topics in this forum
You cannot reply to topics in this forum
You cannot edit your posts in this forum
You cannot delete your posts in this forum
You cannot vote in polls in this forum
You cannot attach files in this forum
You cannot download files in this forum