Today is a free download without charge Download

Otto Dix концерт в каком-то клубе г.Минск, 1 песня [2013, darkwave, HDTVRip 720p]

Reply to topic
 
Author
Message

Omen ®

Longevity: 8 years 3 months

Posts: 181087

Торрент-статистика

Post 11-Aug-2013 13:31

[Quote]

Otto Dix концерт в каком-то клубе г.Минск, 1 песня
Жанр: darkwave
Продолжительность: 04:18:00
Год выпуска: 2013
Описание: 1 песня из концерта Otto Dix в Клубе «Fabrique» город Минск, название песни не знаю, время - 6 апреля 2013, источник релиза - собственная оцифровка собственной съемки.
Доп. информация: Я не профессионал, и это концерт в КЛУБЕ совершенно не предназначенном для съемки - света не было СОВСЕМ, звук почти такой же, как слышали его уши с точки съемки (применил накамерный стереомикрофон Audio-Technica ATR6250) - изза отсутствия света пришлось применить _мануальный_ объектив с самой большой светосилой, что у меня был - ГЕЛИОС 81Н украинского военного завода "Арсат". Вкупе с камерой NIKON D5100 цветА получились сочными даже в такой убийственной для съемки обстановке, но не более - места поставить штатив другого не нашлось, стробоскопы режут мозг и глаза - но больше никто не снимал, это - единственная запись с того концерта. Публикуется впервые. Кто не был в том клубе и первым скачает - тот и первым в мире ее и посмотрит.
Качество: HDCamRip 720p
Контейнер: AVI
Видео кодек: DivX
Аудио кодек: MP3
Видео: DivX, 1280:720, 5610 Kbps, 29.970 fps
Аудио: Mpeg 1 Layer 3, 320 Kbps, 48 KHz, 2 ch

Отчёт MediaInfo / BDInfo

General Complete name : M:\! Otto Dix_r\DSC_0373r2.avi Format : AVI Format/Info : Audio Video Interleave File size : 183 MiB Duration : 4mn 18s Overall bit rate : 5 942 Kbps Writing library : VirtualDub build 35390/release Video #0 ID : 0 Format : MPEG-4 Visual Format settings, BVOP : Yes Format settings, QPel : No Format settings, GMC : No warppoints Format settings, Matrix : Default (H.263) Codec ID : DIVX Codec ID/Info : Project Mayo Codec ID/Hint : DivX 4 Duration : 4mn 18s Bit rate : 5 610 Kbps Width : 1 280 pixels Height : 720 pixels Display aspect ratio : 16:9 Frame rate : 29.970 fps Color space : YUV Chroma subsampling : 4:2:0 Bit depth : 8 bits Scan type : Progressive Compression mode : Lossy Bits/(Pixel*Frame) : 0.203 Stream size : 173 MiB (94%) Audio #1 ID : 1 Format : MPEG Audio Format version : Version 1 Format profile : Layer 3 Mode : Joint stereo Codec ID : 55 Codec ID/Hint : MP3 Duration : 4mn 18s Bit rate mode : Constant Bit rate : 320 Kbps Channel(s) : 2 channels Sampling rate : 48.0 KHz Compression mode : Lossy Stream size : 9.87 MiB (5%) Alignment : Split accross interleaves Interleave, duration : 33 ms (1.00 video frame) Interleave, preload duration : 500 ms Writing library : LAME3.96

Скриншоты

Other forum [Profile] [PM]
Display posts from previous:    
Reply to topic

The time now is: Today 09:06

All times are GMT + 3 Hours



You cannot post new topics in this forum
You cannot reply to topics in this forum
You cannot edit your posts in this forum
You cannot delete your posts in this forum
You cannot vote in polls in this forum
You cannot attach files in this forum
You cannot download files in this forum