Today is a free download without charge Download

Яды, или Всемирная история отравлений (Карен Шахназаров) [2001 г., комедия, BDRip 720p]

Reply to topic
 
Author
Message

Delia ®

Gender:

Longevity: 11 years

Posts: 1821

Торрент-статистика

Post 09-Sep-2011 08:05

[Quote]

Яды или Всемирная история отравлений
Год выпуска: 2001
Страна: Россия
Жанр: комедия
Продолжительность: 01:43:47
Перевод: Не требуется
Режиссер: Карен Шахназаров
Продюссер: Георгий Мукакевич, Галина Шадур
Сценарий: Александр Бородянский, Карен Шахназаров
Премьера в мире: 11 июля 2001
В ролях: Олег Басилашвили, Игнат Акрачков, Александр Баширов, Жанна Дуданова, Людмила Касаткина, Екатерина Климова, Андрей Панин, Ольга Тумайкина, Дмитрий Дюжев, Марина Казанкова
Описание: Москва, 2000 год. Слесарь Арнольд уводит по-соседски жену у актера Олега Волкова. Олег решает напиться в ближайшем баре, где встречает обычного пенсионера Прохорова.Старик предлагает пострадавшему простой способ мести — отравить обидчиков. И сразу все закрутилось. Время пошло вспять к великим отравлениям всех эпох и народов, от Нерона до Екатерины Медичи, в средневековом Риме и древней Персии...- в общем, началась всемирная история отравления.
Качество: BDRip 720p
Формат: MKV
Видео кодек: H.264
Аудио кодек: AC3
Видео: English, 5390 Кбит/сек, 966*720 (4:3), в 23,976 кадр/сек, AVC ([email protected])
Аудио: Russian, 640 Кбит/сек, 48,0 КГц, 16 бит, 6 канала(ов), AC-3

MI:

Общее
Уникальный идентификатор : 180209408882189946850909190619674909401 (0x879311D6B8ECE811B96A52C6D11F1AD9)
Полное имя : E:\торрент\Poisons or the World History of Poisoning(2001)BDRip720p.mkv
Формат : Matroska
Размер файла : 4,37 Гбайт
Продолжительность : 1 ч. 43 м.
Общий поток : 6031 Кбит/сек
Дата кодирования : UTC 2011-09-09 03:24:19
Программа кодирования : mkvmerge v4.9.1 ('Ich will') built on Jul 11 2011 23:53:15
Библиотека кодирования : libebml v1.2.1 + libmatroska v1.1.1
Видео
Идентификатор : 1
Формат : AVC
Формат/Информация : Advanced Video Codec
Профиль формата : [email protected]
Параметр CABAC формата : Да
Параметр ReFrames формата : 10 кадры
Идентификатор кодека : V_MPEG4/ISO/AVC
Продолжительность : 1 ч. 43 м.
Битрейт : 5390 Кбит/сек
Ширина : 966 пикс.
Высота : 720 пикс.
Соотношение сторон : 4:3
Частота кадров : 23,976 кадр/сек
Цветовое пространство : YUV
Подвыборка цветности : 4:2:0
Битовая глубина : 8 бит
Тип развёртки : Прогрессивная
Бит/(Пиксели*Кадры) : 0.323
Размер потока : 3,82 Гбайт (87%)
Библиотека кодирования : x264 core 116 r2074 2641b9e
Настройки программы : cabac=1 / ref=10 / deblock=1:-2:-2 / analyse=0x3:0x133 / me=umh / subme=9 / psy=1 / psy_rd=1.00:0.15 / mixed_ref=1 / me_range=32 / chroma_me=1 / trellis=2 / 8x8dct=1 / cqm=0 / deadzone=21,11 / fast_pskip=0 / chroma_qp_offset=-3 / threads=6 / sliced_threads=0 / nr=0 / decimate=0 / interlaced=0 / bluray_compat=0 / constrained_intra=0 / bframes=6 / b_pyramid=2 / b_adapt=2 / b_bias=0 / direct=3 / weightb=1 / open_gop=0 / weightp=2 / keyint=250 / keyint_min=23 / scenecut=40 / intra_refresh=0 / rc_lookahead=50 / rc=2pass / mbtree=1 / bitrate=5390 / ratetol=1.0 / qcomp=0.60 / qpmin=0 / qpmax=69 / qpstep=4 / cplxblur=20.0 / qblur=0.5 / ip_ratio=1.40 / aq=1:1.00
Язык : English
Аудио
Идентификатор : 2
Формат : AC-3
Формат/Информация : Audio Coding 3
Расширение режима : CM (complete main)
Идентификатор кодека : A_AC3
Продолжительность : 1 ч. 43 м.
Вид битрейта : Постоянный
Битрейт : 640 Кбит/сек
Канал(ы) : 6 канала(ов)
Расположение каналов : Front: L C R, Side: L R, LFE
Частота : 48,0 КГц
Битовая глубина : 16 бит
Метод сжатия : С потерями
Размер потока : 475 Мбайт (11%)
Язык : Russian
Меню
00:00:00.000 : en:00:00:00.000
00:09:10.383 : en:00:09:10.383
00:13:15.795 : en:00:13:15.795
00:20:47.246 : en:00:20:47.246
00:23:48.427 : en:00:23:48.427
00:31:37.896 : en:00:31:37.896
00:40:01.399 : en:00:40:01.399
00:48:29.907 : en:00:48:29.907
00:56:49.823 : en:00:56:49.823
01:04:57.894 : en:01:04:57.894
01:15:09.505 : en:01:15:09.505
01:23:03.979 : en:01:23:03.979
01:29:27.362 : en:01:29:27.362
01:36:55.810 : en:01:36:55.810

Скриншоты

       

_________________
Человек – это канат, натянутый между животным и сверхчеловеком, – канат над пропастью.
В человеке ценно то, что он мост, а не цель. Фридрих Ницше


Last edited by Delia on 2011-09-09 08:37; edited 1 time in total
Other forum [Profile] [PM]
Display posts from previous:    
Reply to topic

The time now is: Today 15:44

All times are GMT + 3 Hours



You cannot post new topics in this forum
You cannot reply to topics in this forum
You cannot edit your posts in this forum
You cannot delete your posts in this forum
You cannot vote in polls in this forum
You cannot attach files in this forum
You cannot download files in this forum