Today is a free download without charge Download

Рикки-Тикки-Тави (Александра Снежко-Блоцкая) [1965 г., мультфильм, DVB]

Reply to topic
 
Author
Message

Omen ®

Longevity: 7 years 11 months

Posts: 181087

Торрент-статистика

Post 10-Aug-2013 00:55

[Quote]

Рикки-Тикки-Тави
Жанр: мультфильм
Год выпуска: 1965
Продолжительность: 00:19:26
Режиссёр: Александра Снежко-Блоцкая
Описание: красивая сказка Редъярда Киплинга про славного мангуста, объявившего беспощадную войну кобрам Нагу и Нагайне, которые держали в страхе весь тропический лес и его окрестности ...
Доп. информация:

Трансляция спутникового канала: "Карусель"
Качество видео: DVB
Формат видео: MPEG-PS
Видео: MPEG2 Video, 720x576, 25 fps, 3900 kbps
Аудио: MPEG Audio, 2 сh, 48 kHz, 192 kbps

MediaInfo

General
Complete name : D:\Рикки-Тикки-Тави. (1965)_DVB by SLuMeP.mpg
Format : MPEG-PS
File size : 585 MiB
Duration : 19mn 26s
Overall bit rate mode : Variable
Overall bit rate : 4 205 Kbps
Video #224
ID : 224 (0xE0)
Format : MPEG Video
Format version : Version 2
Format profile : [email protected]
Format settings, BVOP : Yes
Format settings, Matrix : Custom
Duration : 19mn 26s
Bit rate mode : Variable
Bit rate : 3 930 Kbps
Maximum bit rate : 5 000 Kbps
Width : 720 pixels
Height : 576 pixels
Display aspect ratio : 4:3
Frame rate : 25.000 fps
Standard : PAL
Color space : YUV
Chroma subsampling : 4:2:0
Bit depth : 8 bits
Scan type : Interlaced
Scan order : Top Field First
Compression mode : Lossy
Bits/(Pixel*Frame) : 0.379
Stream size : 547 MiB (93%)
Audio #192
ID : 192 (0xC0)
Format : MPEG Audio
Format version : Version 1
Format profile : Layer 2
Duration : 19mn 26s
Bit rate mode : Constant
Bit rate : 192 Kbps
Channel(s) : 2 channels
Sampling rate : 48.0 KHz
Compression mode : Lossy
Stream size : 26.7 MiB (5%)

Скриншоты

Other forum [Profile] [PM]
Display posts from previous:    
Reply to topic

The time now is: Today 08:52

All times are GMT + 3 Hours



You cannot post new topics in this forum
You cannot reply to topics in this forum
You cannot edit your posts in this forum
You cannot delete your posts in this forum
You cannot vote in polls in this forum
You cannot attach files in this forum
You cannot download files in this forum