Today is a free download without charge Download

Johnny Hallyday - La Derniere Tournee TF1 (Stade de France - Tour 66) [2009 г., Rock, Blues, Rock'n'Roll, HDTVRip, 1080i]

Reply to topic
 
Author
Message

Omen ®

Longevity: 8 years 4 months

Posts: 181087

Торрент-статистика

Post 09-Aug-2013 20:51

[Quote]

Johnny Hallyday - La Derniere Tournee TF1 (Stade de France - Tour 66)
Страна: Франция
Жанр: Rock, Blues, Rock'n'Roll
Продолжительность: 03:09:29 (00:23:21 + 01:00:25 + 01:45:43)
Год выпуска: 2009 г.
Описание: В 2009 году Джонни планировал завершить концертную деятельность и в конце мая в рамках прощального турне была организована серия из трёх концертов (+ предварительная репетиция с участием фан-клуба) на Стад де Франс. Концерт 30 мая 2009 года был показан в прямом эфире на телеканале TF1 - запись трансляции этого концерта и представлена в раздаче!
Первый файл - вступительная часть: корреспондент Никос Алиагас (Nikos Aliagas) беседует с поклонниками Джонни, а также с Жаном-Клодом Камю (продюсер), Летисией Аллидэ (жена Джонни), Жаном Рено, Жаном-Полем Бельмондо, Аленом Делоном и c другими; вперемежку демонстируются различные видеозаписи с Джонни; показано разогревочное выступление в стиле регги/хип-хоп.
Второй и третий файлы - ещё небольшое вступление с Никосом и КОНЦЕРТ (особо жаждущим посмотреть Джонни в HD рекомендую качать сначала второй и третий файлы!)
Именно в телеверсии есть песня Sang pour Sang, исполненная дуэтом с Давидом Аллидэ. Кроме того, в телеверсии присутствуют различные моменты, вырезанные из официального DVD; некоторые моменты показаны с других ракурсов.
Эх, теперь бы ещё Blu-Ray... хотя бы рип на DVD9
_
ВНИМАНИЕ! ТОРРЕНТ ПЕРЕЗАЛИТ 09.08.13. В соответствии с правилами из раздачи удален .nfo файл.
Прошу прощения за неудобства
Треклист:
1 - Intro Tour 66
2 - Ma gueule
3 - Je veux te graver dans ma vie
4 - Joue pas de rock' n' roll pour moi
5 - Degage
6 - Diego, libre dans sa tete
7 - Ca peut changer le monde
8 - Excuse-moi partenaire
9 - Marie
10 - Que je t'aime
11 - Gabrielle
12 - Unchained Melody (Les enchaines)(avec la choriste Amy Keys)
13 - Allumer le feu
14 - Sang pour Sang (avec David Hallyday)
15 - Requiem pour un fou
Unplugged
16 - Le penitencier
17 - La fille de l'ete dernier
18 - Blue Suede Shoes
19 - That's All Right Mama
20 - La terre promise
21 - I Got A Woman
22 - Quelque chose de Tennessee
Medley Rhythm'n Blues
23 - Les coups
24 - Noir c'est noir
25 - Je suis seul
26 - Aussi dur que du bois
27 - Jusqu'а minuit
28 - Derriere l'amour
29 - Le bon temps du rock'n'roll (avec Sylvie Vartan)
30 - La musique que j'aime
31 - L'envie
32 - Ca ne finira jamais
33 - Outro Tour 66
34 - Et maintenant
Источник: скачано из сети, раздаётся "как есть" в оригинальной разбивке на три части
Качество: HDTVRip
Контейнер: TS/M2TS
Видео кодек: AVC
Аудио кодек: AC3
Видео: AVC, 1440х1080, 16:9, ~8500 Kbps, 25 fps
Аудио: 1. AC-3, 192 kbps, 48 kHz, 2.0; 2. E-AC-3, 128 kbps, 48 kHz, 2.0

Отчет MediaInfo (свойства наибольшего файла)

General
ID : 1 (0x1)
Complete name : C:\Users\PETER\Desktop\Johnny Hallyday Stade de France HDTV 1080i\Johnny_3.ts
Format : MPEG-TS
File size : 7.22 GiB
Duration : 1h 45mn
Overall bit rate mode : Variable
Overall bit rate : 9 775 Kbps
Network name : F
Video
ID : 120 (0x78)
Menu ID : 1281 (0x501)
Format : AVC
Format/Info : Advanced Video Codec
Format profile : [email protected]
Format settings, CABAC : Yes
Format settings, ReFrames : 4 frames
Codec ID : 27
Duration : 1h 45mn
Bit rate : 8 969 Kbps
Width : 1 440 pixels
Height : 1 080 pixels
Display aspect ratio : 16:9
Frame rate : 25.000 fps
Color space : YUV
Chroma subsampling : 4:2:0
Bit depth : 8 bits
Scan type : MBAFF
Bits/(Pixel*Frame) : 0.231
Stream size : 6.62 GiB (92%)
Color primaries : BT.709
Transfer characteristics : BT.709
Matrix coefficients : BT.709
Audio #1
ID : 130 (0x82)
Menu ID : 1281 (0x501)
Format : AC-3
Format/Info : Audio Coding 3
Mode extension : CM (complete main)
Format settings, Endianness : Big
Codec ID : 6
Duration : 1h 45mn
Bit rate mode : Constant
Bit rate : 192 Kbps
Channel(s) : 2 channels
Channel positions : Front: L R
Sampling rate : 48.0 KHz
Bit depth : 16 bits
Compression mode : Lossy
Delay relative to video : 28ms
Stream size : 145 MiB (2%)
Language : French
Audio #2
ID : 131 (0x83)
Menu ID : 1281 (0x501)
Format : E-AC-3
Format/Info : Audio Coding 3
Format settings, Endianness : Big
Codec ID : 6
Duration : 1h 45mn
Bit rate mode : Constant
Bit rate : 128 Kbps
Channel(s) : 2 channels
Channel positions : Front: L R
Sampling rate : 48.0 KHz
Compression mode : Lossy
Delay relative to video : 29ms
Stream size : 96.8 MiB (1%)
Language : qaa
Menu
ID : 110 (0x6E)
Menu ID : 1281 (0x501)
Duration : 1h 45mn
List : 120 (0x78) (AVC) / 130 (0x82) (AC-3, French) / 131 (0x83) (E-AC-3, qaa) / 140 (0x8C) (DVB Subtitle) / 141 (0x8D) (DVB Subtitle)
Language : / French / qaa
UTC 2009-05-30 18:45:00 : fr:Johnny Hallyday. "La... / fr:Johnny Hallyday. "La derniиre tournйe" Concert. HD. Prйsentй par Nikos Aliagas. Une soirйe exceptionnelle en direct du Stade de France pour le concert de la derniиre tournйe de Johnny Hallyday. / / / 03:10:00 / Running
UTC 2009-05-30 21:55:00 : fr:New York Unitй Spйciale.... / fr:New York Unitй Spйciale. "Justice en accusation" Sйrie (USA). HD. ST. Avec Christopher Meloni. Elliot Stabler et sa nouvelle partenaire enquкtent sur un viol. La victime identifie son agresseur, un йminent avocat. / / / 00:50:00 / Running
UTC 2009-05-30 22:45:00 : fr:New York Unitй Spйciale.... / fr:New York Unitй Spйciale. "L'oncle de John" Sйrie (USA). HD. ST. Avec C. Meloni. Une femme et sa fille de 10 ans sont retrouvйes violйes et assassinйes dans leur appartement. Les soupзons se portent sur un sans-abri. / / / 00:45:00 / Not running

Скриншоты

Other forum [Profile] [PM]
Display posts from previous:    
Reply to topic

The time now is: Today 15:13

All times are GMT + 3 Hours



You cannot post new topics in this forum
You cannot reply to topics in this forum
You cannot edit your posts in this forum
You cannot delete your posts in this forum
You cannot vote in polls in this forum
You cannot attach files in this forum
You cannot download files in this forum