Today is a free download without charge Download

Теодор Рекс / Theodore Rex (Джонатан Р. Бетуэл) (фантастика, боевик, комедия, семейный 1995) DVDRip

Reply to topic
 
Author
Message

Omen ®

Longevity: 8 years 11 months

Posts: 181086

Торрент-статистика

Post 09-Aug-2013 18:56

[Quote]

Теодор Рекс / Theodore Rex -«The world's toughest cop is getting a brand new partner. He's a real blast from the past.»
-Год выпуска: 1995
Страна: США
Жанр: фантастика, боевик, комедия, семейный-Описание фильма: Нью-Йорк. 2013 год. Динозавры возвращены к существованию и занимают достойное место в обществе - они живут и трудятся наравне с людьми. И в этом странном обществе появляется не менее странное явление - «диноцид», иными словами - истребление динозавров.
Тиранозавр по имени Теодор становится первым в истории «дино - полицейским». Вместе со своей напарницей - непревзойденной Колтрейн - он втягивается в сеть причудливых интриг и приключений, свойственных только этому фантастическому миру.-Режиссер: Джонатан Р. Бетуэл
Актеры: Вупи Голдберг (Katie Coltrane), Армин Мюллер-Шталь (Elizar Kane), Джульетт Ландау (Dr. Veronica Shade), Бад Корт (Spinner), Стивен МакХэтти (Edge), Джордж Ньюберн (Theodore Rex, озвучка), Кэрол Кейн (Molly Rex, озвучка), Ричард Раундтри (Commissioner Lynch), Джек Райли (Alaric), Питер Маккензи (Alex Summers), Джо Даллесандро (Rogan), Тони Т. Джонсон (Sebastian)-Продолжительность: 01:27:57
Качество видео: DVDRip
Перевод: Многоголосый закадровый
Язык субтитров: Отсутствуют- PG-Видеокодек: XviD
Битрейт видео: ~1830 Кбит/с
Размер кадра: 720x544
Аудиокодек: AC3 5.1
Битрейт аудио: 384 kbps
-

MediaInfo:

General
Complete name : D:\Торрент\Teodor.rex.1995.DVDRip.avi
Format : AVI
Format/Info : Audio Video Interleave
File size : 1.36 GiB
Duration : 1h 27mn
Overall bit rate : 2 221 Kbps
Writing application : VirtualDubMod 1.5.4.1 (build 2178/release)
Writing library : VirtualDubMod build 2178/release
Video
ID : 0
Format : MPEG-4 Visual
Format profile : Advanced [email protected]
Format settings, BVOP : 1
Format settings, QPel : No
Format settings, GMC : No warppoints
Format settings, Matrix : Custom
Codec ID : XVID
Codec ID/Hint : XviD
Duration : 1h 27mn
Bit rate : 1 830 Kbps
Width : 720 pixels
Height : 544 pixels
Display aspect ratio : 4:3
Frame rate : 25.000 fps
Color space : YUV
Chroma subsampling : 4:2:0
Bit depth : 8 bits
Scan type : Progressive
Compression mode : Lossy
Bits/(Pixel*Frame) : 0.187
Stream size : 1.12 GiB (82%)
Writing library : XviD 1.2.0.dev47 (UTC 2006-11-01)
Audio
ID : 1
Format : AC-3
Format/Info : Audio Coding 3
Mode extension : CM (complete main)
Codec ID : 2000
Duration : 1h 27mn
Bit rate mode : Constant
Bit rate : 384 Kbps
Channel(s) : 6 channels
Channel positions : Front: L C R, Side: L R, LFE
Sampling rate : 48.0 KHz
Bit depth : 16 bits
Compression mode : Lossy
Stream size : 242 MiB (17%)
Alignment : Split accross interleaves
Interleave, duration : 96 ms (2.40 video frames)
Interleave, preload duration : 96 ms
Language : Russian
-Скриншоты:
         -
Other forum [Profile] [PM]
Display posts from previous:    
Reply to topic

The time now is: Today 14:36

All times are GMT + 3 Hours



You cannot post new topics in this forum
You cannot reply to topics in this forum
You cannot edit your posts in this forum
You cannot delete your posts in this forum
You cannot vote in polls in this forum
You cannot attach files in this forum
You cannot download files in this forum