Today is a free download without charge Download

Хомо Эректус (Андрей Житинкин) (Комедия, сатира, спектакль 2011) TVRip

Reply to topic
 
Author
Message

Omen ®

Longevity: 8 years

Posts: 181087

Торрент-статистика

Post 09-Aug-2013 18:24

[Quote]

Хомо Эректус - Год выпуска: 2011
Жанр: Комедия, сатира, спектакль
Описание фильма:
Самый скандальный театральный режиссёр Андрей Житинкин создал острую и очень злободневную постановку по пьесе Ю. Полякова "Хомо Эректус, или Обмен женами".
Режиссер: Андрей Житинкин
Актеры:
Игорь Кошельков - Юрий Васильев
Маша Кошелькова - Алена Яковлева
Ирина Марковна - Нина Корниенко
Николай Егорович - Владимир Носачев
Валерия - Светлана Рябова
Сергей - Андрей Барило
Кси - Елена Подкаминская
Антон - Олег Вавилов
Вася - Александр Чернявский
Продолжительность: 02:26:10
Видеокодек: XviD
Битрейт видео: ~1203 Кбит/с
Размер кадра: 720 x 400
Качество видео: TVRip
Аудиокодек: MP3 2.0
Битрейт аудио: 128 Кбит/с

MediaInfo

Общее
Полное имя : Xomo.Erektus.2011.TVRip.avi
Формат : AVI
Формат/Информация : Audio Video Interleave
Размер файла : 1,37 Гбайт
Продолжительность : 2 ч. 26 м.
Общий поток : 1341 Кбит/сек
Программа кодирования : VirtualDubModRus 1.5.10.2 (build 2542/release)
Библиотека кодирования : VirtualDub build 32842/release
Видео
Идентификатор : 0
Формат : MPEG-4 Visual
Профиль формата : Advanced [email protected]
Параметр BVOP формата : 2
Параметр QPel формата : Нет
Параметр GMC формата : Без точки перехода
Параметр матрицы формата : Default (MPEG)
Режим смешивания : Сжатый битовый поток
Идентификатор кодека : XVID
Идентификатор кодека/Подсказка : XviD
Продолжительность : 2 ч. 26 м.
Битрейт : 1203 Кбит/сек
Ширина : 720 пикселей
Высота : 400 пикселей
Соотношение сторон : 16:9
Частота кадров : 25,000 кадров/сек
Цветовое пространство : YUV
Субдискретизация насыщенности : 4:2:0
Битовая глубина : 8 бит
Тип развёртки : Прогрессивная
Метод сжатия : С потерями
Бит/(Пиксели*Кадры) : 0.167
Размер потока : 1,23 Гбайт (90%)
Библиотека кодирования : XviD 1.2.1 (UTC 2008-12-04)
Аудио
Идентификатор : 1
Формат : MPEG Audio
Версия формата : Version 1
Профиль формата : Layer 3
Режим : Joint stereo
Расширение режима : MS Stereo
Идентификатор кодека : 55
Идентификатор кодека/Подсказка : MP3
Продолжительность : 2 ч. 26 м.
Вид битрейта : Постоянный
Битрейт : 128 Кбит/сек
Каналы : 2 канала
Частота : 44,1 КГц
Метод сжатия : С потерями
Размер потока : 134 Мбайт (10%)
Выравнивание : Разделение по промежуткам
Продолжительность промежутка : 40 мс. (1,00 видеокадр)
Время предзагрузки промежутка : 500 мс.
Библиотека кодирования : LAME3.99.5
Скриншоты:
         
Other forum [Profile] [PM]
Display posts from previous:    
Reply to topic

The time now is: Today 06:50

All times are GMT + 3 Hours



You cannot post new topics in this forum
You cannot reply to topics in this forum
You cannot edit your posts in this forum
You cannot delete your posts in this forum
You cannot vote in polls in this forum
You cannot attach files in this forum
You cannot download files in this forum