Today is a free download without charge Download

Подари мне счастье (Егор Пузанов) (Драма, Комедия 2004) DVD5

Reply to topic
 
Author
Message

Omen ®

Longevity: 8 years 10 months

Posts: 181086

Торрент-статистика

Post 09-Aug-2013 18:19

[Quote]

Подари мне счастье - Год выпуска: 2004
Жанр: Драма, Комедия
Описание фильма:
Дина мечтает петь, а Эль мечтает окунуться в наполненный красками, настоящими чувствами и эмоциями мир людей. Любовь к жизни настолько сильна, что Эль готова отдать свой сказочный голос Дине и остаться пусть неполноценным, но земным человеком…
Режиссер: Егор Пузанов
Актеры: Светлана Светикова, Гарик Харламов, Елена Караева, Станислав Беляев, Антонина Голубева
Продолжительность: 01:41:04
Качество видео: DVD5

Видеокодек: MPEG-2
Битрейт видео: ~5067 kb/s
Размер кадра: 720*576
Аудиокодек: AC3, 2 ch
Битрейт аудио: 224 kb/s

DVDInfo

Title:
VTS_01 :
Play Length: 01:41:04
Video: PAL 4:3 (720x576) VBR
Audio:
  • Russian, AC3, 2/0 (L,R) ch, 224 kbps, Delay 0 mSec
  • Russian,
    * Menus Information *
    VTS_01 Menu
    Video:
  • PAL 4:3 (720x576) VBR
    Audio:
  • Not specified (Dolby AC3, 2 ch)
    Russian Language Unit :
  • Root Menu
  • Chapter (PTT) Menu

MediaInfo

Общее
Полное имя : L:\VIDEO_TS\VTS_01_1.VOB
Формат : MPEG-PS
Размер файла : 1024 Мбайт
Продолжительность : 26 м.
Режим общего битрейта : Переменный
Общий поток : 5398 Кбит/сек
Видео
Идентификатор : 224 (0xE0)
Формат : MPEG Video
Версия формата : Version 2
Профиль формата : [email protected]
Параметр BVOP формата : Да
Параметр матрицы формата : Выборочная
Параметр GOP формата : M=3, N=15
Продолжительность : 26 м.
Вид битрейта : Переменный
Битрейт : 5067 Кбит/сек
Максимальный битрейт : 8000 Кбит/сек
Ширина : 720 пикселей
Высота : 576 пикселей
Соотношение сторон : 4:3
Частота кадров : 25,000 кадров/сек
Стандарт вещания : PAL
Цветовое пространство : YUV
Субдискретизация насыщенности : 4:2:0
Битовая глубина : 8 бит
Тип развёртки : Чересстрочная
Порядок развёртки : Верхнее поле первое
Метод сжатия : С потерями
Бит/(Пиксели*Кадры) : 0.489
Временной код первого кадра : 00:00:07:05
Оригинал временного кода : Group of pictures header
Размер потока : 961 Мбайт (94%)
Аудио
Идентификатор : 189 (0xBD)-128 (0x80)
Формат : AC-3
Формат/Информация : Audio Coding 3
Расширение режима : CM (complete main)
Параметр Endianness формата : Big
Режим смешивания : DVD-Video
Продолжительность : 26 м.
Вид битрейта : Постоянный
Битрейт : 224 Кбит/сек
Каналы : 2 канала
Расположение каналов : Front: L R
Частота : 48,0 КГц
Битовая глубина : 16 бит
Метод сжатия : С потерями
Задержка видео : -80 мс.
Размер потока : 42,5 Мбайт (4%)
Меню

Дополнительные материалы

Отсутствуют

Скриншоты меню

     
       
Other forum [Profile] [PM]
Display posts from previous:    
Reply to topic

The time now is: Today 15:37

All times are GMT + 3 Hours



You cannot post new topics in this forum
You cannot reply to topics in this forum
You cannot edit your posts in this forum
You cannot delete your posts in this forum
You cannot vote in polls in this forum
You cannot attach files in this forum
You cannot download files in this forum