Today is a free download without charge Download

3rdegree - The Reunion Concerts: 2Blu-ray [2007, Crossover Prog / Progressive Rock, Blu-ray]

Reply to topic
 
Author
Message

Omen ®

Longevity: 8 years 3 months

Posts: 181087

Торрент-статистика

Post 09-Aug-2013 08:39

[Quote]

3rdegree - The Reunion Concerts: 2Blu-ray
Жанр: Crossover Prog / Progressive Rock
Продолжительность: 03:30:00
Год выпуска: 2007
Описание: Предлогаю вашему вниманию двойной альбом интересной американской группы 3rdegree, выпущеного стараниями самих музыкантов, так сказать, "частным
порядком", не официально. Первый диск - собственно сам концерт, то есть, перемешаны записи с двух концертов: электрического и аккустического, слегка разбавленных
"разговорным жанром", к счастью, только в перерывах между сюжетами. Второй диск - "At Home & At NJ Proghouse" состоит из трёх частей: фрагментов репециций; аккустика
и электрика; и полноценный, этакий, аккустический домашний междусобойчик, без "купюр". Море музыки. Песни звучат полностью, разговоры (а их не так уж и много)
вставлены между композициями (хотя, могли бы сложить их в отдельную папку). Песни, на первом диске, помеченные *звёздочкой, как уверяют производители, доступны
только здесь (по-видимому, ранее не издавались)!!!
"At Home," is just that—the band, clearly enjoying the hell out of themselves after a long layoff—kicking back in front of a small group of friends/family in a living room for an acoustic set.
Don't let the "A" word fool you, though: it sizzles. Drawing on material from their 1st 2 releases as well as their latest album, the thoughtful yet thoroughly enjoyable Narrowcaster,
there's also some new material. Some selections re-visited and re-arranged, some brightly polished, and some just plain belted out, "At Home" is a fine set and a wonderful peek at this
complex yet accessible group of guys who are equally "at home" in 4/4 or 13/16 time
Качество: Blu-ray
Контейнер: BDMV
Видео кодек: MPEG-4 AVC Video
Аудио кодек: PCM

Disc-1

Tracks Listing:
01. Black Orchid (acoustic)
02. Home In The Clouds (acoustic)*
03. Why Me (acoustic)
04. Cautionary Tale (acoustic)
05. Elsewhere (Sarah Mclachlan cover)*
06. A Work Of Art (acoustic)*
07. A Man (acoustic)*
08. The Art Of Being Alone (acoustic)*
09. The World In Which We Lived (acoustic)
10. Stardust (acoustic)
11. It Works (acoustic)
12. Doesn't Quite Belong (acoustic)*
13. Ladder (acoustic)
14. Young Once (acoustic)
15. Scenery (acoustic)
16. Done It Again (acoustic)*
17. I (acoustic)
18. Human Interest Story (acoustic)
19. Top Secret (electric)
20. Ladder (electric)
21. Free For All (electric)
22. Apophenia (electric)
23. Peel The Paint (Gentle Giant cover)*
24. 13 (electric)
25. Dancing Over Scarlet Mist (electric)
26. Stardust (electric)
27. It Works (electric)
28. Live With This Forever (electric)
29. Cautionary Tale (electric)
30. Home In The Clouds (electric)*
31. Done It Again (electric)*
32. Young Once (electric)
33. Scenery (electric)
34. I (electric)
25. Human Interest Story (electric)
Total time:01:53:10
Musicians:
- George Dobbs / lead vocals, keyboards
- Robert James Pashman / bass, keyboards, vocals
- Pat Kliesch / guitars, vocals
- Rob Durham / drums, percussion
- Eric Pseja / guitars, bass, vocals, percussion
Качество: Blu-ray
Формат: BDMV
Видео кодек: MPEG-4 AVC Video
Аудио кодек: PCM
Видео: MPEG-4 AVC Video / 24891 kbps / 1080i / 29,970 fps / 16:9 / High Profile 4.1
Аудио: Undetermined / LPCM Audio / 2.0 / 48 kHz / 2304 kbps / 24-bit
Total Bitrate: 28,59 Mbps
Disc Title: 3rdegree (2007) - The Reunion Concerts (Disc-1)Disc Size: 24 268 616 488 bytesProtection: AACSBD-Java: NoBDInfo: 0.5.8
Notes:
BDINFO HOME: Cinema Squid http://www.cinemasquid.com/blu-ray/tools/bdinfo
INCLUDES FORUMS REPORT FOR: AVS Forum Blu-ray Audio and Video Specifications Thread http://www.avsforum.com/avs-vb/showthread.php?t=1155731
********************PLAYLIST: 00001.MPLS********************
Код:
Total   Video
Title                                                           Codec   Length  Movie Size      Disc Size       Bitrate Bitrate Main Audio Track
Secondary Audio Track
-----                                                           ------  ------- --------------  --------------  ------- ------- ------------------
---------------------
00001.MPLS                                                      AVC     1:53:10 24 265 734 144  24 268 616 488  28,59   24,89   LPCM 2.0 2304Kbps (48kHz/24-bit)
Код:
DISC INFO:
Disc Title:     3rdegree (2007) - The Reunion Concerts (Disc-1)
Disc Size:      24 268 616 488 bytes
Protection:     AACS
BD-Java:        No
BDInfo:         0.5.8
PLAYLIST REPORT:
Name:                   00001.MPLS
Length:                 1:53:10.817 (h:m:s.ms)
Size:                   24 265 734 144 bytes
Total Bitrate:          28,59 Mbps
VIDEO:
Codec                   Bitrate             Description
-----                   -------             -----------
MPEG-4 AVC Video        24891 kbps          1080i / 29,970 fps / 16:9 / High Profile 4.1
AUDIO:
Codec                           Language        Bitrate         Description
-----                           --------        -------         -----------
LPCM Audio                      Undetermined    2304 kbps       2.0 / 48 kHz / 2304 kbps / 24-bit
FILES:
Name            Time In         Length          Size            Total Bitrate
----            -------         ------          ----            -------------
00001.M2TS      0:00:00.000     1:53:10.817     24 265 734 144  28 587
CHAPTERS:
Number          Time In         Length          Avg Video Rate  Max 1-Sec Rate  Max 1-Sec Time  Max 5-Sec Rate  Max 5-Sec Time  Max 10Sec Rate  Max 10Sec Time  Avg Frame
Size  Max Frame Size  Max Frame Time
------          -------         ------          --------------  --------------  --------------  --------------  --------------  --------------  --------------
--------------  --------------  --------------
1               0:00:00.000     0:02:17.837     25 087 kbps     59 850 kbps     00:00:07.440    33 564 kbps     00:00:07.440    28 140 kbps     00:00:34.567    104 610
bytes   564 235 bytes   00:00:07.941
2               0:02:17.837     0:04:48.955     24 977 kbps     34 037 kbps     00:05:31.864    27 762 kbps     00:05:31.397    26 265 kbps     00:05:27.393    104 176
bytes   357 541 bytes   00:05:55.955
3               0:07:06.793     0:03:08.855     24 947 kbps     60 530 kbps     00:08:44.323    34 131 kbps     00:08:44.323    29 627 kbps     00:09:50.389    104 051
bytes   847 316 bytes   00:07:54.407
4               0:10:15.648     0:02:49.435     25 078 kbps     31 812 kbps     00:11:51.410    27 091 kbps     00:11:50.710    26 291 kbps     00:10:15.648    104 595
bytes   365 157 bytes   00:10:57.990
5               0:13:05.084     0:06:09.435     24 981 kbps     32 849 kbps     00:13:41.187    27 519 kbps     00:13:38.784    26 185 kbps     00:13:33.279    104 190
bytes   356 578 bytes   00:19:09.681
6               0:19:14.520     0:01:06.833     24 956 kbps     35 339 kbps     00:20:12.778    27 889 kbps     00:19:41.213    26 437 kbps     00:19:36.708    104 085
bytes   442 460 bytes   00:20:12.844
7               0:20:21.353     0:04:44.284     25 014 kbps     34 666 kbps     00:22:33.719    27 407 kbps     00:23:31.777    26 359 kbps     00:22:37.956    104 328
bytes   485 443 bytes   00:21:12.671
8               0:25:05.637     0:04:41.848     23 805 kbps     60 920 kbps     00:26:10.235    34 227 kbps     00:26:10.235    29 545 kbps     00:27:15.133    99 289
bytes    767 522 bytes   00:27:57.042
9               0:29:47.485     0:04:52.625     26 157 kbps     33 213 kbps     00:32:02.854    30 803 kbps     00:30:32.063    30 261 kbps     00:30:32.063    109 096
bytes   393 960 bytes   00:31:52.343
10              0:34:40.111     0:01:02.729     22 943 kbps     43 490 kbps     00:35:41.839    27 467 kbps     00:34:50.388    25 936 kbps     00:34:45.383    95 690
bytes    832 882 bytes   00:35:33.865
11              0:35:42.840     0:04:08.615     25 505 kbps     48 621 kbps     00:35:42.840    31 310 kbps     00:35:42.840    29 624 kbps     00:35:42.840    106 376
bytes   432 561 bytes   00:35:43.341
12              0:39:51.455     0:01:00.927     24 853 kbps     34 075 kbps     00:40:19.049    27 391 kbps     00:40:18.582    26 234 kbps     00:40:12.076    103 659
bytes   417 454 bytes   00:40:19.083
13              0:40:52.383     0:05:16.149     25 040 kbps     35 466 kbps     00:40:52.383    28 538 kbps     00:40:52.383    26 813 kbps     00:40:52.383    104 440
bytes   348 228 bytes   00:41:08.132
14              0:46:08.532     0:01:01.928     24 870 kbps     33 381 kbps     00:46:39.229    27 460 kbps     00:46:45.068    26 900 kbps     00:46:39.096    103 729
bytes   647 055 bytes   00:47:08.859
15              0:47:10.460     0:04:43.416     24 990 kbps     33 157 kbps     00:51:07.597    27 773 kbps     00:47:10.460    26 234 kbps     00:47:19.436    104 229
bytes   415 542 bytes   00:51:20.811
16              0:51:53.877     0:04:02.475     24 496 kbps     46 368 kbps     00:52:04.154    30 901 kbps     00:52:00.784    29 739 kbps     00:53:20.163    102 167
bytes   735 285 bytes   00:52:00.917
17              0:55:56.352     0:02:42.128     25 799 kbps     32 126 kbps     00:57:13.997    29 326 kbps     00:56:08.064    28 498 kbps     00:56:08.064    107 602
bytes   376 911 bytes   00:57:14.164
18              0:58:38.481     0:00:57.257     24 965 kbps     44 994 kbps     00:59:04.507    32 215 kbps     00:59:03.072    28 677 kbps     00:59:03.072    104 126
bytes   765 860 bytes   00:59:01.104
19              0:59:35.738     0:04:41.214     24 984 kbps     34 040 kbps     01:03:01.677    27 776 kbps     01:02:37.353    26 446 kbps     01:02:47.463    104 204
bytes   365 083 bytes   00:59:36.239
20              1:04:16.953     0:02:43.863     25 017 kbps     47 740 kbps     01:05:36.699    30 297 kbps     01:05:36.699    27 093 kbps     01:05:35.264    104 341
bytes   712 280 bytes   01:06:24.013
21              1:07:00.816     0:05:06.306     25 037 kbps     31 430 kbps     01:07:00.816    27 240 kbps     01:07:00.816    26 190 kbps     01:08:55.498    104 424
bytes   522 255 bytes   01:12:07.122
22              1:12:07.122     0:00:29.996     24 726 kbps     39 610 kbps     01:12:07.122    27 042 kbps     01:12:15.064    26 005 kbps     01:12:19.068    103 126
bytes   469 902 bytes   01:12:09.625
23              1:12:37.119     0:04:24.197     24 999 kbps     32 005 kbps     01:13:19.528    28 366 kbps     01:13:16.125    26 498 kbps     01:13:14.022    104 266
bytes   358 115 bytes   01:12:38.120
24              1:17:01.316     0:00:12.479     24 383 kbps     26 012 kbps     01:17:10.292    25 208 kbps     01:17:06.288    25 010 kbps     01:17:01.783    101 696
bytes   316 126 bytes   01:17:13.795
25              1:17:13.795     0:04:37.610     25 027 kbps     36 045 kbps     01:21:27.315    28 578 kbps     01:17:13.795    26 896 kbps     01:17:13.795    104 383
bytes   428 476 bytes   01:21:03.191
26              1:21:51.406     0:01:16.776     25 006 kbps     33 406 kbps     01:22:41.156    28 129 kbps     01:22:39.287    26 647 kbps     01:22:39.788    104 296
bytes   711 853 bytes   01:22:29.778
27              1:23:08.183     0:02:39.592     25 029 kbps     32 083 kbps     01:24:44.379    27 226 kbps     01:25:15.543    25 958 kbps     01:24:24.426    104 394
bytes   356 763 bytes   01:24:24.459
28              1:25:47.775     0:01:05.131     24 797 kbps     34 855 kbps     01:26:39.627    27 579 kbps     01:26:39.327    26 339 kbps     01:26:32.320    103 423
bytes   420 855 bytes   01:26:39.794
29              1:26:52.907     0:05:33.399     25 016 kbps     38 068 kbps     01:26:53.007    28 100 kbps     01:26:52.907    26 530 kbps     01:29:52.720    104 336
bytes   472 190 bytes   01:30:01.095
30              1:32:26.307     0:00:41.341     24 987 kbps     40 667 kbps     01:32:48.062    35 748 kbps     01:32:46.894    29 026 kbps     01:32:45.459    104 215
bytes   696 880 bytes   01:32:34.949
31              1:33:07.648     0:04:40.480     25 021 kbps     32 916 kbps     01:36:49.303    26 877 kbps     01:36:47.134    26 034 kbps     01:33:07.648    104 358
bytes   377 795 bytes   01:36:49.336
32              1:37:48.128     0:00:21.688     24 503 kbps     32 148 kbps     01:37:48.529    27 126 kbps     01:37:48.329    25 045 kbps     01:37:59.240    102 196
bytes   300 446 bytes   01:37:49.129
33              1:38:09.817     0:06:54.614     25 013 kbps     48 007 kbps     01:43:31.271    30 437 kbps     01:43:31.171    27 482 kbps     01:43:31.171    104 326
bytes   438 981 bytes   01:43:31.471
34              1:45:04.431     0:01:16.943     24 932 kbps     44 404 kbps     01:46:03.557    29 405 kbps     01:46:00.053    27 223 kbps     01:45:19.379    103 987
bytes   724 425 bytes   01:45:43.270
35              1:46:21.375     0:04:00.840     25 069 kbps     33 675 kbps     01:46:21.475    28 095 kbps     01:46:21.575    27 141 kbps     01:46:21.541    104 557
bytes   429 847 bytes   01:48:08.982
36              1:50:22.215     0:02:48.601     20 571 kbps     32 293 kbps     01:52:33.646    26 912 kbps     01:51:04.057    26 286 kbps     01:50:28.521    85 815
bytes    524 448 bytes   01:52:44.157
STREAM DIAGNOSTICS:
File            PID             Type            Codec           Language                Seconds                 Bitrate                 Bytes           Packets
----            ---             ----            -----           --------                --------------          --------------          -------------   -----
00001.M2TS      4113 (0x1011)   0x1B            AVC                                     6790,684                24 892                  21 128 946 769  114 950 404
00001.M2TS      4352 (0x1100)   0x80            LPCM            und (Undetermined)      6790,684                2 310                   1 961 181 596   10 865 272
QUICK SUMMARY:
Disc Title: 3rdegree (2007) - The Reunion Concerts (Disc-1)Disc Size: 24 268 616 488 bytesProtection: AACSBD-Java: NoPlaylist: 00001.MPLSSize: 24 265 734 144 bytesLength: 1:53:10.817Total Bitrate: 28,59 MbpsVideo: MPEG-4 AVC Video / 24891 kbps / 1080i / 29,970 fps / 16:9 / High Profile 4.1Audio: Undetermined / LPCM Audio / 2.0 / 48 kHz / 2304 kbps / 24-bit

Disc-2

Story-1: announce
Качество: Blu-ray
Формат: BDMV
Видео кодек: MPEG-4 AVC
Аудио кодек: PCM
Playlist: 00001.MPLS
Size: 372 430 848 bytes
Length: 0:01:45.071
Total Bitrate: 28,36 Mbps
Video: MPEG-4 AVC Video / 25260 kbps / 1080i / 29,970 fps / 16:9 / High Profile 4.1
Audio: Undetermined / LPCM Audio / 2.0 / 48 kHz / 1536 kbps / 16-bit
Story-2
Качество: Blu-ray
Формат: BDMV
Видео кодек: MPEG-4 AVC
Аудио кодек: PCM
Playlist: 00002.MPLS
Size: 6 837 405 696 bytes
Length: 0:31:25.149
Total Bitrate: 29,02 Mbps
Video: MPEG-4 AVC Video / 25891 kbps / 1080i / 29,970 fps / 16:9 / High Profile 4.1
Audio: Undetermined / LPCM Audio / 2.0 / 48 kHz / 1536 kbps / 16-bit
Story-3
Качество: Blu-ray
Формат: BDMV
Видео кодек: MPEG-4 AVC
Аудио кодек: PCM
Playlist: 00003.MPLS
Size: 3 028 604 928 bytes
Length: 0:13:52.198
Total Bitrate: 29,11 Mbps
Video: MPEG-4 AVC Video / 25986 kbps / 1080i / 29,970 fps / 16:9 / High Profile 4.1
Audio: Undetermined / LPCM Audio / 2.0 / 48 kHz / 1536 kbps / 16-bit
Story-4
Качество: Blu-ray
Формат: BDMV
Видео кодек: MPEG-4 AVC
Аудио кодек: PCM
Playlist: 00004.MPLS
Size: 11 220 000 768 bytes
Length: 0:51:33.223
Total Bitrate: 29,02 Mbps
Video: MPEG-4 AVC Video / 25894 kbps / 1080i / 29,970 fps / 16:9 / High Profile 4.1
Audio: Undetermined / LPCM Audio / 2.0 / 48 kHz / 1536 kbps / 16-bit
Total time: 01:38:35
Disc Title: 3rdegree (2007) - The Reunion Concerts (Disc-2)Disc Size: 21 461 495 584 bytesProtection: AACSBD-Java: NoBDInfo: 0.5.8
Notes:
BDINFO HOME: Cinema Squid http://www.cinemasquid.com/blu-ray/tools/bdinfo
INCLUDES FORUMS REPORT FOR: AVS Forum Blu-ray Audio and Video Specifications Thread http://www.avsforum.com/avs-vb/showthread.php?t=1155731
********************PLAYLIST: 00004.MPLS********************
Код:
Total   Video
Title                                                           Codec   Length  Movie Size      Disc Size       Bitrate Bitrate Main Audio Track
Secondary Audio Track
-----                                                           ------  ------- --------------  --------------  ------- ------- ------------------
---------------------
00004.MPLS                                                      AVC     0:51:33 11 220 000 768  21 461 495 584  29,02   25,89   LPCM 2.0 1536Kbps (48kHz/16-bit)
Код:
DISC INFO:
Disc Title:     3rdegree (2007) - The Reunion Concerts (Disc-2)
Disc Size:      21 461 495 584 bytes
Protection:     AACS
BD-Java:        No
BDInfo:         0.5.8
PLAYLIST REPORT:
Name:                   00004.MPLS
Length:                 0:51:33.223 (h:m:s.ms)
Size:                   11 220 000 768 bytes
Total Bitrate:          29,02 Mbps
VIDEO:
Codec                   Bitrate             Description
-----                   -------             -----------
MPEG-4 AVC Video        25894 kbps          1080i / 29,970 fps / 16:9 / High Profile 4.1
AUDIO:
Codec                           Language        Bitrate         Description
-----                           --------        -------         -----------
LPCM Audio                      Undetermined    1536 kbps       2.0 / 48 kHz / 1536 kbps / 16-bit
FILES:
Name            Time In         Length          Size            Total Bitrate
----            -------         ------          ----            -------------
00004.M2TS      0:00:00.000     0:51:33.223     11 220 000 768  29 018
CHAPTERS:
Number          Time In         Length          Avg Video Rate  Max 1-Sec Rate  Max 1-Sec Time  Max 5-Sec Rate  Max 5-Sec Time  Max 10Sec Rate  Max 10Sec Time  Avg Frame
Size  Max Frame Size  Max Frame Time
------          -------         ------          --------------  --------------  --------------  --------------  --------------  --------------  --------------
--------------  --------------  --------------
1               0:00:00.000     0:02:27.647     26 052 kbps     63 663 kbps     00:00:01.701    34 904 kbps     00:00:01.701    30 717 kbps     00:00:01.601    108 633
bytes   612 531 bytes   00:00:02.502
2               0:02:27.647     0:04:18.791     25 996 kbps     29 538 kbps     00:05:44.644    26 812 kbps     00:05:40.640    26 395 kbps     00:05:35.635    108 424
bytes   330 592 bytes   00:02:53.640
3               0:06:46.439     0:05:49.515     25 998 kbps     29 696 kbps     00:11:58.551    27 095 kbps     00:12:04.590    26 514 kbps     00:08:05.084    108 432
bytes   335 279 bytes   00:07:16.502
4               0:12:35.955     0:06:45.304     25 999 kbps     30 013 kbps     00:14:47.987    27 115 kbps     00:14:44.717    26 538 kbps     00:14:10.249    108 439
bytes   333 289 bytes   00:18:01.647
5               0:19:21.260     0:05:49.716     25 999 kbps     30 915 kbps     00:21:40.932    27 380 kbps     00:22:33.585    26 715 kbps     00:20:10.442    108 438
bytes   395 114 bytes   00:19:46.585
6               0:25:10.976     0:10:17.516     25 999 kbps     34 680 kbps     00:32:02.687    28 731 kbps     00:30:38.236    27 426 kbps     00:34:12.450    108 437
bytes   452 742 bytes   00:34:14.952
7               0:35:28.493     0:06:06.366     26 021 kbps     38 702 kbps     00:40:38.969    30 170 kbps     00:40:38.969    27 304 kbps     00:35:49.280    108 529
bytes   443 579 bytes   00:36:58.115
8               0:41:34.859     0:03:44.891     25 959 kbps     35 057 kbps     00:41:41.932    28 736 kbps     00:44:18.522    27 358 kbps     00:42:00.851    108 272
bytes   432 807 bytes   00:42:05.356
9               0:45:19.750     0:05:09.876     26 026 kbps     35 150 kbps     00:46:01.091    28 751 kbps     00:45:59.189    27 371 kbps     00:46:52.576    108 552
bytes   428 848 bytes   00:48:16.059
10              0:50:29.626     0:01:03.596     20 661 kbps     37 823 kbps     00:51:12.035    27 827 kbps     00:50:39.903    26 939 kbps     00:50:40.470    86 218
bytes    716 395 bytes   00:51:01.425
STREAM DIAGNOSTICS:
File            PID             Type            Codec           Language                Seconds                 Bitrate                 Bytes           Packets
----            ---             ----            -----           --------                --------------          --------------          -------------   -----
00004.M2TS      4113 (0x1011)   0x1B            AVC                                     3093,090                25 895                  10 011 930 673  54 466 768
00004.M2TS      4352 (0x1100)   0x80            LPCM            und (Undetermined)      3093,090                1 542                   596 367 996     3 711 834
QUICK SUMMARY:
Disc Title: 3rdegree (2007) - The Reunion Concerts (Disc-2)Disc Size: 21 461 495 584 bytesProtection: AACSBD-Java: NoPlaylist: 00004.MPLSSize: 11 220 000 768 bytesLength: 0:51:33.223Total Bitrate: 29,02 MbpsVideo: MPEG-4 AVC Video / 25894 kbps / 1080i / 29,970 fps / 16:9 / High Profile 4.1Audio: Undetermined / LPCM Audio / 2.0 / 48 kHz / 1536 kbps / 16-bit
********************PLAYLIST: 00002.MPLS********************
Код:
Total   Video
Title                                                           Codec   Length  Movie Size      Disc Size       Bitrate Bitrate Main Audio Track
Secondary Audio Track
-----                                                           ------  ------- --------------  --------------  ------- ------- ------------------
---------------------
00002.MPLS                                                      AVC     0:31:25 6 837 405 696   21 461 495 584  29,02   25,89   LPCM 2.0 1536Kbps (48kHz/16-bit)
Код:
DISC INFO:
Disc Title:     3rdegree (2007) - The Reunion Concerts (Disc-2)
Disc Size:      21 461 495 584 bytes
Protection:     AACS
BD-Java:        No
BDInfo:         0.5.8
PLAYLIST REPORT:
Name:                   00002.MPLS
Length:                 0:31:25.149 (h:m:s.ms)
Size:                   6 837 405 696 bytes
Total Bitrate:          29,02 Mbps
VIDEO:
Codec                   Bitrate             Description
-----                   -------             -----------
MPEG-4 AVC Video        25891 kbps          1080i / 29,970 fps / 16:9 / High Profile 4.1
AUDIO:
Codec                           Language        Bitrate         Description
-----                           --------        -------         -----------
LPCM Audio                      Undetermined    1536 kbps       2.0 / 48 kHz / 1536 kbps / 16-bit
FILES:
Name            Time In         Length          Size            Total Bitrate
----            -------         ------          ----            -------------
00002.M2TS      0:00:00.000     0:31:25.149     6 837 405 696   29 016
CHAPTERS:
Number          Time In         Length          Avg Video Rate  Max 1-Sec Rate  Max 1-Sec Time  Max 5-Sec Rate  Max 5-Sec Time  Max 10Sec Rate  Max 10Sec Time  Avg Frame
Size  Max Frame Size  Max Frame Time
------          -------         ------          --------------  --------------  --------------  --------------  --------------  --------------  --------------
--------------  --------------  --------------
1               0:00:00.000     0:01:15.308     25 734 kbps     55 884 kbps     00:00:04.771    33 336 kbps     00:00:04.371    29 418 kbps     00:00:52.886    107 283
bytes   837 717 bytes   00:00:04.804
2               0:01:15.308     0:06:11.704     26 043 kbps     34 129 kbps     00:01:49.909    29 793 kbps     00:01:16.276    29 073 kbps     00:01:15.375    108 620
bytes   424 225 bytes   00:03:57.003
3               0:07:27.013     0:00:10.844     25 729 kbps     50 465 kbps     00:07:33.820    29 238 kbps     00:07:32.852    26 345 kbps     00:07:27.213    107 312
bytes   532 261 bytes   00:07:32.985
4               0:07:37.857     0:04:21.561     26 025 kbps     38 095 kbps     00:07:37.857    30 408 kbps     00:07:37.924    27 573 kbps     00:07:37.924    108 545
bytes   403 296 bytes   00:08:00.980
5               0:11:59.418     0:00:54.053     25 067 kbps     55 553 kbps     00:12:25.811    33 327 kbps     00:12:25.478    28 356 kbps     00:12:23.976    104 552
bytes   808 230 bytes   00:12:24.510
6               0:12:53.472     0:05:09.575     26 126 kbps     31 760 kbps     00:12:53.472    29 695 kbps     00:12:58.144    29 532 kbps     00:12:53.472    108 965
bytes   343 040 bytes   00:14:08.547
7               0:18:03.048     0:03:55.468     26 039 kbps     38 406 kbps     00:18:03.449    29 609 kbps     00:18:03.248    27 959 kbps     00:18:03.215    108 603
bytes   379 673 bytes   00:18:04.049
8               0:21:58.517     0:00:46.679     25 854 kbps     47 721 kbps     00:22:38.824    37 102 kbps     00:22:38.357    28 686 kbps     00:22:19.371    107 833
bytes   740 072 bytes   00:22:19.171
9               0:22:45.197     0:03:51.331     26 033 kbps     30 652 kbps     00:25:09.441    28 227 kbps     00:22:45.197    27 469 kbps     00:22:46.164    108 577
bytes   352 791 bytes   00:26:16.241
10              0:26:36.528     0:00:40.407     25 997 kbps     33 577 kbps     00:26:58.750    28 316 kbps     00:26:38.296    27 232 kbps     00:26:37.295    108 431
bytes   422 400 bytes   00:26:41.266
11              0:27:16.935     0:04:08.214     25 185 kbps     56 063 kbps     00:31:12.604    27 816 kbps     00:27:32.384    26 914 kbps     00:27:27.412    105 057
bytes   760 490 bytes   00:31:12.937
STREAM DIAGNOSTICS:
File            PID             Type            Codec           Language                Seconds                 Bitrate                 Bytes           Packets
----            ---             ----            -----           --------                --------------          --------------          -------------   -----
00002.M2TS      4113 (0x1011)   0x1B            AVC                                     1885,050                25 893                  6 101 151 193   33 191 537
00002.M2TS      4352 (0x1100)   0x80            LPCM            und (Undetermined)      1885,050                1 542                   363 451 136     2 262 144
QUICK SUMMARY:
Disc Title: 3rdegree (2007) - The Reunion Concerts (Disc-2)Disc Size: 21 461 495 584 bytesProtection: AACSBD-Java: NoPlaylist: 00002.MPLSSize: 6 837 405 696 bytesLength: 0:31:25.149Total Bitrate: 29,02 MbpsVideo: MPEG-4 AVC Video / 25891 kbps / 1080i / 29,970 fps / 16:9 / High Profile 4.1Audio: Undetermined / LPCM Audio / 2.0 / 48 kHz / 1536 kbps / 16-bit
********************PLAYLIST: 00003.MPLS********************
Код:
Total   Video
Title                                                           Codec   Length  Movie Size      Disc Size       Bitrate Bitrate Main Audio Track
Secondary Audio Track
-----                                                           ------  ------- --------------  --------------  ------- ------- ------------------
---------------------
00003.MPLS                                                      AVC     0:13:52 3 028 604 928   21 461 495 584  29,11   25,99   LPCM 2.0 1536Kbps (48kHz/16-bit)
Код:
DISC INFO:
Disc Title:     3rdegree (2007) - The Reunion Concerts (Disc-2)
Disc Size:      21 461 495 584 bytes
Protection:     AACS
BD-Java:        No
BDInfo:         0.5.8
PLAYLIST REPORT:
Name:                   00003.MPLS
Length:                 0:13:52.198 (h:m:s.ms)
Size:                   3 028 604 928 bytes
Total Bitrate:          29,11 Mbps
VIDEO:
Codec                   Bitrate             Description
-----                   -------             -----------
MPEG-4 AVC Video        25986 kbps          1080i / 29,970 fps / 16:9 / High Profile 4.1
AUDIO:
Codec                           Language        Bitrate         Description
-----                           --------        -------         -----------
LPCM Audio                      Undetermined    1536 kbps       2.0 / 48 kHz / 1536 kbps / 16-bit
FILES:
Name            Time In         Length          Size            Total Bitrate
----            -------         ------          ----            -------------
00003.M2TS      0:00:00.000     0:13:52.198     3 028 604 928   29 114
CHAPTERS:
Number          Time In         Length          Avg Video Rate  Max 1-Sec Rate  Max 1-Sec Time  Max 5-Sec Rate  Max 5-Sec Time  Max 10Sec Rate  Max 10Sec Time  Avg Frame
Size  Max Frame Size  Max Frame Time
------          -------         ------          --------------  --------------  --------------  --------------  --------------  --------------  --------------
--------------  --------------  --------------
1               0:00:00.000     0:01:05.565     25 971 kbps     39 869 kbps     00:00:00.200    27 869 kbps     00:00:00.200    26 565 kbps     00:00:00.200    108 268
bytes   411 277 bytes   00:00:00.500
2               0:01:05.565     0:01:15.075     25 086 kbps     58 417 kbps     00:01:51.811    36 800 kbps     00:01:51.411    32 739 kbps     00:01:51.411    104 632
bytes   456 378 bytes   00:01:52.112
3               0:02:20.640     0:09:02.041     26 103 kbps     31 758 kbps     00:02:20.640    29 696 kbps     00:02:36.256    29 337 kbps     00:02:31.351    108 872
bytes   302 922 bytes   00:09:21.561
4               0:11:22.681     0:01:37.597     26 067 kbps     62 489 kbps     00:11:29.655    36 713 kbps     00:11:29.488    32 854 kbps     00:11:29.488    108 719
bytes   487 492 bytes   00:11:30.189
5               0:13:00.279     0:00:51.918     25 929 kbps     34 590 kbps     00:13:19.131    29 467 kbps     00:13:19.098    27 738 kbps     00:13:15.394    108 217
bytes   362 107 bytes   00:13:19.398
STREAM DIAGNOSTICS:
File            PID             Type            Codec           Language                Seconds                 Bitrate                 Bytes           Packets
----            ---             ----            -----           --------                --------------          --------------          -------------   -----
00003.M2TS      4113 (0x1011)   0x1B            AVC                                     832,131                 25 988                  2 703 175 418   14 705 703
00003.M2TS      4352 (0x1100)   0x80            LPCM            und (Undetermined)      832,131                 1 542                   160 442 376     998 604
QUICK SUMMARY:
Disc Title: 3rdegree (2007) - The Reunion Concerts (Disc-2)Disc Size: 21 461 495 584 bytesProtection: AACSBD-Java: NoPlaylist: 00003.MPLSSize: 3 028 604 928 bytesLength: 0:13:52.198Total Bitrate: 29,11 MbpsVideo: MPEG-4 AVC Video / 25986 kbps / 1080i / 29,970 fps / 16:9 / High Profile 4.1Audio: Undetermined / LPCM Audio / 2.0 / 48 kHz / 1536 kbps / 16-bit
********************PLAYLIST: 00001.MPLS********************
Код:
Total   Video
Title                                                           Codec   Length  Movie Size      Disc Size       Bitrate Bitrate Main Audio Track
Secondary Audio Track
-----                                                           ------  ------- --------------  --------------  ------- ------- ------------------
---------------------
00001.MPLS                                                      AVC     0:01:45 372 430 848     21 461 495 584  28,36   25,26   LPCM 2.0 1536Kbps (48kHz/16-bit)
Код:
DISC INFO:
Disc Title:     3rdegree (2007) - The Reunion Concerts (Disc-2)
Disc Size:      21 461 495 584 bytes
Protection:     AACS
BD-Java:        No
BDInfo:         0.5.8
PLAYLIST REPORT:
Name:                   00001.MPLS
Length:                 0:01:45.071 (h:m:s.ms)
Size:                   372 430 848 bytes
Total Bitrate:          28,36 Mbps
VIDEO:
Codec                   Bitrate             Description
-----                   -------             -----------
MPEG-4 AVC Video        25260 kbps          1080i / 29,970 fps / 16:9 / High Profile 4.1
AUDIO:
Codec                           Language        Bitrate         Description
-----                           --------        -------         -----------
LPCM Audio                      Undetermined    1536 kbps       2.0 / 48 kHz / 1536 kbps / 16-bit
FILES:
Name            Time In         Length          Size            Total Bitrate
----            -------         ------          ----            -------------
00001.M2TS      0:00:00.000     0:01:45.071     372 430 848     28 356
CHAPTERS:
Number          Time In         Length          Avg Video Rate  Max 1-Sec Rate  Max 1-Sec Time  Max 5-Sec Rate  Max 5-Sec Time  Max 10Sec Rate  Max 10Sec Time  Avg Frame
Size  Max Frame Size  Max Frame Time
------          -------         ------          --------------  --------------  --------------  --------------  --------------  --------------  --------------
--------------  --------------  --------------
1               0:00:00.000     0:01:45.071     25 260 kbps     63 504 kbps     00:01:39.766    35 817 kbps     00:00:02.335    31 797 kbps     00:00:02.335    105 354
bytes   837 928 bytes   00:01:39.799
STREAM DIAGNOSTICS:
File            PID             Type            Codec           Language                Seconds                 Bitrate                 Bytes           Packets
----            ---             ----            -----           --------                --------------          --------------          -------------   -----
00001.M2TS      4113 (0x1011)   0x1B            AVC                                     105,005                 25 276                  331 760 836     1 804 890
00001.M2TS      4352 (0x1100)   0x80            LPCM            und (Undetermined)      105,005                 1 543                   20 251 712      126 048
QUICK SUMMARY:
Disc Title: 3rdegree (2007) - The Reunion Concerts (Disc-2)Disc Size: 21 461 495 584 bytesProtection: AACSBD-Java: NoPlaylist: 00001.MPLSSize: 372 430 848 bytesLength: 0:01:45.071Total Bitrate: 28,36 MbpsVideo: MPEG-4 AVC Video / 25260 kbps / 1080i / 29,970 fps / 16:9 / High Profile 4.1Audio: Undetermined / LPCM Audio / 2.0 / 48 kHz / 1536 kbps / 16-bit

Скриншоты - disc 1




Скриншоты - disc 2






Other forum [Profile] [PM]
Display posts from previous:    
Reply to topic

The time now is: Today 22:56

All times are GMT + 3 Hours



You cannot post new topics in this forum
You cannot reply to topics in this forum
You cannot edit your posts in this forum
You cannot delete your posts in this forum
You cannot vote in polls in this forum
You cannot attach files in this forum
You cannot download files in this forum