Today is a free download without charge Download

Денежный поезд / Money Train (Джозеф Рубин) [1995 г., боевик, триллер, драма, комедия, криминал, BDRip720p]

Reply to topic
 
Author
Message

Delia ®

Gender:

Longevity: 9 years 6 months

Posts: 1821

Торрент-статистика

Post 08-Sep-2011 11:57

[Quote]

Денежный поезд Money Train Год выпуска: 1995
Страна: США
Жанр: боевик, триллер, драма, комедия, криминал
Продолжительность: 01:49:58
Перевод: Профессиональный дублированный
Режиссер: Джозеф Рубин
Продюссер: Трэйси Бароне, Нил Кэнтон, Даг Клейборн
Сценарий: Даг Ричардсон, Дэвид Локери
Бюджет: $60 000 000
Премьера в мире: 12 ноября 1995
В ролях: Уэсли Снайпс, Вуди Харрельсон, Дженнифер Лопез, Роберт Блейк, Крис Купер, Джо Грифази, Скотт Сауэрс, Скипп Саддат, Винсент Лареска, Нельсон Васкес
Описание: Два сводных брата, белый и чернокожий, с детства мечтавшие лишь об одном — разбогатеть, задумывают дерзкое ограбление. Цель налетчиков — поезд метро, каждую ночь перевозящий миллионы по тоннелям нью — йоркской подземки. Только два обстоятельства останавливают их: они оба полицейские, а поезд находится под личной охраной их босса.Но соблазн слишком велик, да и вредному боссу, накануне уволившему их со службы, насолить очень уж хочется, и вот — в новогоднюю ночь пара новоявленных грабителей решает осуществить то, о чем они грезили всю жизнь — угнать поезд и стать миллионерами...
Качество: BDRip720p
Формат: MKV
Видео кодек: H.264
Аудио кодек: AC3
Видео: English, 4417 Кбит/сек, 1280*528 (2,40:1), в 23,976 кадр/сек, AVC ([email protected])
Аудио: Russian, 384 Кбит/сек, 48,0 КГц, 16 бит, 6 канала(ов), AC-3 (Профессиональный дублированный )
Аудио:Russian, 192 Кбит/сек, 48,0 КГц, 16 бит, 2 канала(ов), AC-3 (Профессиональный (многоголосый закадровый)
Аудио:Russian, 384 Кбит/сек, 48,0 КГц, 16 бит, 6 канала(ов), AC-3 (Авторский (одноголосый закадровый) [Павел Санаев])
Аудио:English, 320 Кбит/сек, 48,0 КГц, 16 бит, 6 канала(ов), AC-3 ( Оригинал)

MI:

Общее
Уникальный идентификатор : 190415475744664138408226468470119072176 (0x8F40AFC9063F772E84DFBCF30BE601B0)
Полное имя : E:\торрент\Money Train (1995)BDRip720p.mkv
Формат : Matroska
Размер файла : 4,37 Гбайт
Продолжительность : 1 ч. 49 м.
Общий поток : 5694 Кбит/сек
Дата кодирования : UTC 2011-09-08 06:16:37
Программа кодирования : mkvmerge v4.9.1 ('Ich will') built on Jul 11 2011 23:53:15
Библиотека кодирования : libebml v1.2.1 + libmatroska v1.1.1
Видео
Идентификатор : 1
Формат : AVC
Формат/Информация : Advanced Video Codec
Профиль формата : [email protected]
Параметр CABAC формата : Да
Параметр ReFrames формата : 10 кадры
Идентификатор кодека : V_MPEG4/ISO/AVC
Продолжительность : 1 ч. 49 м.
Битрейт : 4417 Кбит/сек
Ширина : 1280 пикс.
Высота : 528 пикс.
Соотношение сторон : 2,40:1
Частота кадров : 23,976 кадр/сек
Цветовое пространство : YUV
Подвыборка цветности : 4:2:0
Битовая глубина : 8 бит
Тип развёртки : Прогрессивная
Бит/(Пиксели*Кадры) : 0.273
Размер потока : 3,30 Гбайт (76%)
Библиотека кодирования : x264 core 116 r2074 2641b9e
Настройки программы : cabac=1 / ref=10 / deblock=1:-2:-2 / analyse=0x3:0x133 / me=umh / subme=9 / psy=1 / psy_rd=1.00:0.15 / mixed_ref=1 / me_range=32 / chroma_me=1 / trellis=2 / 8x8dct=1 / cqm=0 / deadzone=21,11 / fast_pskip=0 / chroma_qp_offset=-3 / threads=6 / sliced_threads=0 / nr=0 / decimate=0 / interlaced=0 / bluray_compat=0 / constrained_intra=0 / bframes=8 / b_pyramid=2 / b_adapt=2 / b_bias=0 / direct=3 / weightb=1 / open_gop=0 / weightp=2 / keyint=250 / keyint_min=23 / scenecut=40 / intra_refresh=0 / rc_lookahead=50 / rc=2pass / mbtree=1 / bitrate=4417 / ratetol=1.0 / qcomp=0.70 / qpmin=0 / qpmax=69 / qpstep=4 / cplxblur=20.0 / qblur=0.5 / ip_ratio=1.40 / aq=1:1.00
Язык : English
Аудио #1
Идентификатор : 2
Формат : AC-3
Формат/Информация : Audio Coding 3
Расширение режима : CM (complete main)
Идентификатор кодека : A_AC3
Продолжительность : 1 ч. 49 м.
Вид битрейта : Постоянный
Битрейт : 384 Кбит/сек
Канал(ы) : 6 канала(ов)
Расположение каналов : Front: L C R, Side: L R, LFE
Частота : 48,0 КГц
Битовая глубина : 16 бит
Метод сжатия : С потерями
Размер потока : 302 Мбайт (7%)
Язык : Russian
Аудио #2
Идентификатор : 3
Формат : AC-3
Формат/Информация : Audio Coding 3
Расширение режима : CM (complete main)
Идентификатор кодека : A_AC3
Продолжительность : 1 ч. 49 м.
Вид битрейта : Постоянный
Битрейт : 192 Кбит/сек
Канал(ы) : 2 канала(ов)
Расположение каналов : Front: L R
Частота : 48,0 КГц
Битовая глубина : 16 бит
Метод сжатия : С потерями
Размер потока : 151 Мбайт (3%)
Язык : Russian
Аудио #3
Идентификатор : 4
Формат : AC-3
Формат/Информация : Audio Coding 3
Расширение режима : CM (complete main)
Идентификатор кодека : A_AC3
Продолжительность : 1 ч. 49 м.
Вид битрейта : Постоянный
Битрейт : 384 Кбит/сек
Канал(ы) : 6 канала(ов)
Расположение каналов : Front: L C R, Side: L R, LFE
Частота : 48,0 КГц
Битовая глубина : 16 бит
Метод сжатия : С потерями
Размер потока : 302 Мбайт (7%)
Язык : Russian
Аудио #4
Идентификатор : 5
Формат : AC-3
Формат/Информация : Audio Coding 3
Расширение режима : CM (complete main)
Идентификатор кодека : A_AC3
Продолжительность : 1 ч. 49 м.
Вид битрейта : Постоянный
Битрейт : 320 Кбит/сек
Канал(ы) : 6 канала(ов)
Расположение каналов : Front: L C R, Side: L R, LFE
Частота : 48,0 КГц
Битовая глубина : 16 бит
Метод сжатия : С потерями
Размер потока : 252 Мбайт (6%)
Язык : English
Меню
00:00:00.000 : en:00:00:00.000
00:05:49.140 : en:00:05:49.140
00:12:44.347 : en:00:12:44.347
00:17:12.281 : en:00:17:12.281
00:25:01.667 : en:00:25:01.667
00:31:20.170 : en:00:31:20.170
00:40:27.550 : en:00:40:27.550
00:46:52.393 : en:00:46:52.393
00:50:31.862 : en:00:50:31.862
00:56:01.692 : en:00:56:01.692
01:02:50.809 : en:01:02:50.809
01:11:31.704 : en:01:11:31.704
01:14:40.935 : en:01:14:40.935
01:22:01.917 : en:01:22:01.917
01:27:19.317 : en:01:27:19.317
01:39:45.646 : en:01:39:45.646

Скриншоты

               

_________________
Человек – это канат, натянутый между животным и сверхчеловеком, – канат над пропастью.
В человеке ценно то, что он мост, а не цель. Фридрих Ницше
Other forum [Profile] [PM]
Display posts from previous:    
Reply to topic

The time now is: Today 08:25

All times are GMT + 3 Hours



You cannot post new topics in this forum
You cannot reply to topics in this forum
You cannot edit your posts in this forum
You cannot delete your posts in this forum
You cannot vote in polls in this forum
You cannot attach files in this forum
You cannot download files in this forum