Today is a free download without charge Download

Roger Hodgson (ex-Supertramp) mit Band & Stuttgarter Philharmoniker - Jazz Open Stuttgart 2013 [2013, Art Rock / Prog-Rock / Pop Rock, HDTV 720p]

Reply to topic
 
Author
Message

Omen ®

Longevity: 8 years 4 months

Posts: 181087

Торрент-статистика

Post 08-Aug-2013 20:17

[Quote]

ROGER HODGSON mit BAND &
STUTTGARTER PHILHARMONIKER
Jazz Open Stuttgart 2013

-
Жанр: Art Rock / Prog-Rock / Pop Rock
Продолжительность: 01:14:02
Год выпуска: 2013
Musicians:
ROGER HODGSON - vocals, guitar, keyboards, piano
Stuttgarter Philharmoniker
Leitung: BERND RUF
Track List:
1. Take the Long Way Home
2. School
3. Breakfast in America
4. Lovers in the Wind
5. Hide in Your Shell
6. Rosie Had Everything Planned
7. Soapbox Opera
8. Logical Song
9. Even in the Quietest Moments
10. Only Because of You
11. Child of Vision
12. Dreamer
13. Two of Us
14. Give a Little Bit
15. It's Raining Again
Доп. информация:
20. Jazz Open Stuttgart, 6. Juli, 2013, aus dem Ehrenhof des Neuen Schlosses
ROGER HODGSON mit BAND & STUTTGARTER PHILHARMONIKER jazzopen.com
ROGER HODGSON spielt auf dem Schlossplatz - mit Orchester stuttgarter-zeitung.de
ROGER HODGSON Official Site
ROGER HODGSON from Wikipedia, the free encyclopedia
STUTTGARTER PHILHARMONIKER Official Site
Качество: HDTV 720p
Контейнер: TS
Видео кодек: H.264
Аудио кодек: AC3
Видео: 12.4 Mbps, 1280*720 (16:9), at 50.000 fps, AVC ([email protected]) (CABAC / 6 Ref Frames)
Аудио: German, 448 Kbps, 48.0 KHz, 16 bits, 2 channels, AC-3
Источник: Digital Satellite > SkyStar HD2 (TechniSat) > raw data to HDD > Cypheros TS-Doctor > VideoReDo TVSuite v4 (cut) > ts

Отчёт MediaInfo / BDInfo

GeneralID : 1 (0x1)Complete name : K:\rutracker.org_HD\3sat HD_Roger Hodgson mit Band - Jazz Open Stuttgart 2013.tsFormat : MPEG-TSFile size : 6.98 GiBDuration : 1h 14mnOverall bit rate : 13.5 Mbps
VideoID : 6510 (0x196E)Menu ID : 1 (0x1)Format : AVCFormat/Info : Advanced Video CodecFormat profile : [email protected] settings, CABAC : YesFormat settings, ReFrames : 6 framesCodec ID : 27Duration : 1h 14mnBit rate : 12.4 MbpsWidth : 1 280 pixelsHeight : 720 pixelsDisplay aspect ratio : 16:9Frame rate : 50.000 fpsColor space : YUVChroma subsampling : 4:2:0Bit depth : 8 bitsScan type : ProgressiveBits/(Pixel*Frame) : 0.269Stream size : 6.40 GiB (92%)Color primaries : BT.709-5, BT.1361, IEC 61966-2-4, SMPTE RP177Transfer characteristics : BT.709-5, BT.1361Matrix coefficients : BT.709-5, BT.1361, IEC 61966-2-4 709, SMPTE RP177
AudioID : 6522 (0x197A)Menu ID : 1 (0x1)Format : AC-3Format/Info : Audio Coding 3Mode extension : CM (complete main)Codec ID : 6Duration : 1h 14mnBit rate mode : ConstantBit rate : 448 KbpsChannel(s) : 2 channelsChannel positions : Front: L RSampling rate : 48.0 KHzBit depth : 16 bitsCompression mode : LossyStream size : 237 MiB (3%)Language : German
Other forum [Profile] [PM]
Display posts from previous:    
Reply to topic

The time now is: Today 10:37

All times are GMT + 3 Hours



You cannot post new topics in this forum
You cannot reply to topics in this forum
You cannot edit your posts in this forum
You cannot delete your posts in this forum
You cannot vote in polls in this forum
You cannot attach files in this forum
You cannot download files in this forum