Today is a free download without charge Download

Тор 2: Царство тьмы в 3Д / Thor: The Dark World 3D (Алан Тейлор / Alan Taylor) [2013, фэнтези, боевик, приключения, DCPrip трейлер] Half OverUnder / Вертикальная анаморфная стереопара

Reply to topic
 
Author
Message

Omen ®

Longevity: 8 years 8 months

Posts: 181087

Торрент-статистика

Post 08-Aug-2013 12:09

[Quote]

Тор 2: Царство тьмы / Thor: The Dark World / Трейлер
Год выпуска: 2013
Страна: США
Студия: Walt Disney Studios
Жанр: фэнтези, боевик, приключения
Продолжительность: 00:01:45
Перевод: Профессиональный (дублированный)
Русские субтитры: нет
Режиссер на русском: Алан Тейлор
Режиссер на английском: Alan Taylor
В ролях: Крис Хемсворт, Натали Портман, Том Хиддлстон, Энтони Хопкинс, Кэт Деннингс, Крис О’Дауд, Идрис Эльба
Описание: Тору предстоит сразиться за спасение Земли и Девяти Миров от таинственного врага из времен, предшествовавших возникновению вселенной. После событий «Тора» и «Мстителей» главный герой борется за восстановление порядка в космосе, но древняя раса во главе с мстительным Малекитом возвращается, чтобы погрузить вселенную обратно во тьму. Столкнувшись с врагом, которому не способен противостоять ни Один, ни весь Асгард, Тор отправляется в самое рискованное путешествие, которое воссоединит его с Джейн Фостер с Земли и заставит пожертвовать всем ради спасения вселенной.
[Качество: DCPrip
Контейнер: MKV
Формат 3D: Half OverUnder / Вертикальная анаморфная стереопара
Порядок ракурсов: левый ракурс первый
Видео кодек: h.264
Аудио кодек: AC3
Видео: MPEG4 Video (H264),1920х1080,24fps,39,8 Мбит/сек
Аудио: Rus, Dolby AC3 48000Hz 6ch

MediaInfo

Общее
Уникальный идентификатор : 196881175855602845150803560241429117806 (0x941DEF69B3EDEC8A9E6D602F56BA7B6E)
Полное имя : C:\Users\Администратор\Desktop\Thor2_TLR-A-3D_S_RU.mkv
Формат : Matroska
Версия формата : Version 4 / Version 2
Размер файла : 503 Мбайт
Продолжительность : 1 м. 45 с.
Режим общего битрейта : Переменный
Общий поток : 39,8 Мбит/сек
Дата кодирования : UTC 2013-08-05 00:07:15
Программа кодирования : mkvmerge v6.1.0 ('Old Devil') built on Mar 2 2013 14:32:37
Библиотека кодирования : libebml v1.3.0 + libmatroska v1.4.0
Видео
Идентификатор : 1
Формат : AVC
Формат/Информация : Advanced Video Codec
Профиль формата : [email protected]
Параметр CABAC формата : Да
Параметр ReFrames формата : 4 кадра
Параметр GOP формата : M=3, N=15
Идентификатор кодека : V_MPEG4/ISO/AVC
Продолжительность : 1 м. 46 с.
Вид битрейта : Переменный
Битрейт : 38,6 Мбит/сек
Максимальный битрейт : 100,0 Мбит/сек
Ширина : 1920 пикселей
Высота : 1080 пикселей
Соотношение сторон : 16:9
Режим частоты кадров : Постоянный
Частота кадров : 24,000 кадра/сек
Стандарт вещания : NTSC
Цветовое пространство : YUV
Субдискретизация насыщенности : 4:2:0
Битовая глубина : 8 бит
Тип развёртки : Прогрессивная
Бит/(Пиксели*Кадры) : 0.775
Размер потока : 487 Мбайт (97%)
Default : Да
Forced : Нет
Основные цвета : BT.709
Характеристики трансфера : BT.709
Коэффициенты матрицы : BT.709
Аудио
Идентификатор : 2
Формат : AC-3
Формат/Информация : Audio Coding 3
Расширение режима : CM (complete main)
Параметр Endianness формата : Big
Идентификатор кодека : A_AC3
Продолжительность : 1 м. 45 с.
Вид битрейта : Постоянный
Битрейт : 448 Кбит/сек
Каналы : 6 каналов
Расположение каналов : Front: L C R, Side: L R, LFE
Частота : 48,0 КГц
Битовая глубина : 16 бит
Метод сжатия : С потерями
Размер потока : 5,66 Мбайт (1%)
Язык : Russian
Default : Да
Forced : Нет

Скриншоты

Other forum [Profile] [PM]
Display posts from previous:    
Reply to topic

The time now is: Today 00:47

All times are GMT + 3 Hours



You cannot post new topics in this forum
You cannot reply to topics in this forum
You cannot edit your posts in this forum
You cannot delete your posts in this forum
You cannot vote in polls in this forum
You cannot attach files in this forum
You cannot download files in this forum