Today is a free download without charge Download

Подручный Хадсакера / The Hudsucker Proxy (1994) BDRip [480p] iPhone/iPad

Reply to topic
 
Author
Message

UndegraundMen ®

Longevity: 8 years 11 months

Posts: 25145

Торрент-статистика

Post 08-Aug-2013 05:05

[Quote]

Подручный Хадсакера / The Hudsucker Proxy (1994) BDRip [480p] iPhone/iPad
«A Comedy of Invention.»
- Русское название: Подручный Хадсакера
Оригинальное название: The Hudsucker Proxy
Год выпуска: 1994
Производство: Великобритания, Германия, США / © PolyGram Filmed Entertainment, PolyGram Filmproduktion, Silver Pictures
Жанр: фэнтези, комедия
Перевод: Русский многоголосый закадровый, двухголосый закадровый, одноголосый закадровый
Язык субтитров: Русский
Субтитры: вшитые отключаемые
Навигация: по главам
Режиссёр: Джоэл Коэн, Итан Коэн
В ролях: Тим Роббинс, Дженнифер Джейсон Ли, Пол Ньюман, Чарльз Дёрнинг, Джон Махони, Джим Тру-Фрост, Билл Коббс, Брюс Кэмпбелл, Гарри Бьюджин
Описание: Безработный паренек из провинции оказывается в самом центре Америки - Нью-Йорке, в поисках работы. Благодаря счастливому стечению обстоятельств, его зачисляют в число клерков одной из крупнейших компаний. С этого момента новоиспеченному клерку начинает везти.
В результате чиновничьих интриг парень из провинции оказывается председателем компании, и этот поворот судьбы резко меняет его жизнь. Но слава и деньги, о которых когда-то мечтал герой, могут не только возвеличить, но и порядком испортить ему жизнь.

Дата мировой премьеры: 11 марта 1994
Дата Российской премьеры: -
Рейтинг MPAA -PG
Продолжительность: 01:50:45
Качество видео: BDRip
Видеокодек: MPEG-4 AVC/H.264
Битрейт видео: ~ 1 800 Kbps
Размер кадра: [email protected]
Аудио:
* AAC 2.0 180 kbps - Русский двухголосый закадровый (R5)
* AAC 2.0 180 kbps - Русский многоголосый закадровый ("DVD Group")
* AAC 2.0 192 kbps - Русский многоголосый закадровый (1-й канал)
* AAC 2.0 180 kbps - Русский одноголосый закадровый (Горчаков)
* AAC 2.0 180 kbps - Русский одноголосый закадровый (Живов)
* AAC 2.0 192 kbps - Английский

Media Info

Код:
General
Complete name                            : D:\x264\480\out\The Hudsucker Proxy.1994 (SD).m4v
Format                                   : MPEG-4
Codec ID                                 : M4V
File size                                : 2.15 GiB
Duration                                 : 1h 50mn
Overall bit rate mode                    : Variable
Overall bit rate                         : 2 781 Kbps
Movie name                               : Подручный Хадсакера
Performer                                : Джоэл Коэн, Итан Коэн
Genre                                    : Comedy
Recorded date                            : UTC 1994-03-11 08:00:00
Encoded date                             : UTC 2013-08-06 08:17:38
Tagged date                              : UTC 2013-08-06 08:19:37
Copyright                                : © PolyGram Filmed Entertainment, PolyGram Filmproduktion, Silver Pictures
Cover                                    : Yes
Comment                                  : «A Comedy of Invention.»
iTunEXTC                                 : mpaa|PG|200|
iTunMOVI                                 :  /  /  /  /   cast /    /      /       name /       Тим Роббинс /      /      /       name /       Дженнифер Джейсон Ли /      /      /       name /       Пол Ньюман /      /      /       name /       Чарльз Дёрнинг /      /      /       name /       Джон Махони /      /      /       name /       Джим Тру-Фрост /      /      /       name /       Билл Коббс /      /      /       name /       Брюс Кэмпбелл /      /      /       name /       Гарри Бьюджин /      /    /   directors /    /      /       name /       Joel Coen /      /    /   producers /    /      /       name /       Итан Коэн /      /      /       name /       Джоэл Коэн /      /      /       name /       Тим Беван /      /    /   screenwriters /    /      /       name /       Итан Коэн /      /      /       name /       Джоэл Коэн /      /      /       name /       Сэм Рэйми /      /    /   studio /   © PolyGram Filmed Entertainment, PolyGram Filmproduktion, Silver Pictures /  /
sonm                                     : Hudsucker Proxy
desc                                     : Безработный паренек из провинции оказывается в самом центре Америки — Нью-Йорке, в поисках работы. Благодаря счастливому стечению обстоятельств, его зачисляют в число клерков одной из крупнейших компаний.
ldes                                     : Безработный паренек из провинции оказывается в самом центре Америки — Нью-Йорке, в поисках работы. Благодаря счастливому стечению обстоятельств, его зачисляют в число клерков одной из крупнейших компаний. С этого момента новоиспеченному клерку начинает везти. В результате чиновничьих интриг парень из провинции оказывается председателем компании, и этот поворот судьбы резко меняет его жизнь. Но слава и деньги, о которых когда-то мечтал герой, могут не только возвеличить, но и порядком испортить ему жизнь.
hdvd                                     : 0
stik                                     : 9
akID                                     : -1
sfID                                     : 0
cnID                                     : 294317592
xid                                      : Apple:vendor_id:1994-2889
Video
ID                                       : 1
Format                                   : AVC
Format/Info                              : Advanced Video Codec
Format profile                           : [url=mailto:[email protected]][email protected][/url]
Format settings, CABAC                   : No
Format settings, ReFrames                : 2 frames
Codec ID                                 : avc1
Codec ID/Info                            : Advanced Video Coding
Duration                                 : 1h 50mn
Bit rate                                 : 1 800 Kbps
Maximum bit rate                         : 7 264 Kbps
Width                                    : 640 pixels
Height                                   : 480 pixels
Display aspect ratio                     : 16:9
Frame rate mode                          : Constant
Frame rate                               : 23.976 fps
Color space                              : YUV
Chroma subsampling                       : 4:2:0
Bit depth                                : 8 bits
Scan type                                : Progressive
Bits/(Pixel*Frame)                       : 0.244
Stream size                              : 1.39 GiB (65%)
Title                                    : The Hudsucker Proxy (1994) Released for NNM-Club by gekka
Writing library                          : x264 core 133 r2334+704+50 a7549b7 tMod [[email protected]:2:0 X86_64]
Encoding settings                        : cabac=0 / ref=2 / deblock=1:-1:-1 / analyse=0x1:0x131 / me=tesa / subme=7 / psy=1 / fade_compensate=1.00 / psy_rd=0.95:0.15 / mixed_ref=1 / me_range=32 / chroma_me=1 / trellis=2 / 8x8dct=0 / cqm=0 / deadzone=21,11 / fast_pskip=0 / chroma_qp_offset=-3 / threads=18 / lookahead_threads=3 / sliced_threads=0 / nr=0 / decimate=0 / interlaced=0 / bluray_compat=0 / constrained_intra=0 / fgo=0 / bframes=0 / weightp=0 / keyint=250 / keyint_min=23 / scenecut=40 / intra_refresh=0 / rc_lookahead=120 / rc=2pass / mbtree=1 / bitrate=1800 / ratetol=1.0 / qcomp=0.70 / qpmin=0 / qpmax=69 / qpstep=4 / cplxblur=20.0 / qblur=0.5 / vbv_maxrate=5000 / vbv_bufsize=5000 / nal_hrd=none / ip_ratio=1.35 / aq=4:0.90 / aq-sensitivity=10.00 / aq-factor=1.00:1.00:1.00 / aq2=0 / aq3=0
Language                                 : English
Encoded date                             : UTC 2013-08-06 08:17:38
Tagged date                              : UTC 2013-08-06 08:18:00
Matrix coefficients                      : BT.709
Audio #1
ID                                       : 2
Format                                   : AAC
Format/Info                              : Advanced Audio Codec
Format profile                           : LC
Codec ID                                 : 40
Duration                                 : 1h 35mn
Bit rate mode                            : Variable
Bit rate                                 : 184 Kbps
Maximum bit rate                         : 223 Kbps
Channel(s)                               : 2 channels
Channel positions                        : Front: L R
Sampling rate                            : 48.0 KHz
Compression mode                         : Lossy
Stream size                              : 126 MiB (6%)
Title                                    : AAC Russian DVO (R5)
Language                                 : Russian
Encoded date                             : UTC 2013-08-06 08:17:46
Tagged date                              : UTC 2013-08-06 08:18:00
Audio #2
ID                                       : 3
Format                                   : AAC
Format/Info                              : Advanced Audio Codec
Format profile                           : LC
Codec ID                                 : 40
Duration                                 : 1h 35mn
Bit rate mode                            : Variable
Bit rate                                 : 183 Kbps
Maximum bit rate                         : 221 Kbps
Channel(s)                               : 2 channels
Channel positions                        : Front: L R
Sampling rate                            : 48.0 KHz
Compression mode                         : Lossy
Stream size                              : 125 MiB (6%)
Title                                    : AAC Russian MVO (DVD Group)
Language                                 : Russian
Encoded date                             : UTC 2013-08-06 08:17:48
Tagged date                              : UTC 2013-08-06 08:18:00
Audio #3
ID                                       : 4
Format                                   : AAC
Format/Info                              : Advanced Audio Codec
Format profile                           : LC
Codec ID                                 : 40
Duration                                 : 1h 35mn
Bit rate mode                            : Variable
Bit rate                                 : 192 Kbps
Maximum bit rate                         : 226 Kbps
Channel(s)                               : 2 channels
Channel positions                        : Front: L R
Sampling rate                            : 48.0 KHz
Compression mode                         : Lossy
Stream size                              : 131 MiB (6%)
Title                                    : AAC Russian MVO (1 kanal)
Language                                 : Russian
Encoded date                             : UTC 2013-08-06 08:17:50
Tagged date                              : UTC 2013-08-06 08:18:00
Audio #4
ID                                       : 5
Format                                   : AAC
Format/Info                              : Advanced Audio Codec
Format profile                           : LC
Codec ID                                 : 40
Duration                                 : 1h 35mn
Bit rate mode                            : Variable
Bit rate                                 : 183 Kbps
Maximum bit rate                         : 233 Kbps
Channel(s)                               : 2 channels
Channel positions                        : Front: L R
Sampling rate                            : 48.0 KHz
Compression mode                         : Lossy
Stream size                              : 125 MiB (6%)
Title                                    : AAC Russian VO (Gorchakov)
Language                                 : Russian
Encoded date                             : UTC 2013-08-06 08:17:52
Tagged date                              : UTC 2013-08-06 08:18:00
Audio #5
ID                                       : 6
Format                                   : AAC
Format/Info                              : Advanced Audio Codec
Format profile                           : LC
Codec ID                                 : 40
Duration                                 : 1h 35mn
Bit rate mode                            : Variable
Bit rate                                 : 182 Kbps
Maximum bit rate                         : 223 Kbps
Channel(s)                               : 2 channels
Channel positions                        : Front: L R
Sampling rate                            : 48.0 KHz
Compression mode                         : Lossy
Stream size                              : 124 MiB (6%)
Title                                    : AAC Russian VO (Jivov)
Language                                 : Russian
Encoded date                             : UTC 2013-08-06 08:17:55
Tagged date                              : UTC 2013-08-06 08:18:00
Audio #6
ID                                       : 7
Format                                   : AAC
Format/Info                              : Advanced Audio Codec
Format profile                           : LC
Codec ID                                 : 40
Duration                                 : 1h 35mn
Bit rate mode                            : Variable
Bit rate                                 : 192 Kbps
Maximum bit rate                         : 235 Kbps
Channel(s)                               : 2 channels
Channel positions                        : Front: L R
Sampling rate                            : 48.0 KHz
Compression mode                         : Lossy
Stream size                              : 131 MiB (6%)
Title                                    : AAC English
Language                                 : English
Encoded date                             : UTC 2013-08-06 08:17:57
Tagged date                              : UTC 2013-08-06 08:18:00
Text
ID                                       : 8
Format                                   : Timed Text
Muxing mode                              : sbtl
Codec ID                                 : tx3g
Duration                                 : 1h 46mn
Bit rate mode                            : Variable
Bit rate                                 : 88 bps
Stream size                              : 68.4 KiB (0%)
Title                                    : Subtitle Russian
Language                                 : Russian
Encoded date                             : UTC 2013-08-06 08:18:00
Tagged date                              : UTC 2013-08-06 08:18:00

Tags & x264 Log


Sort Name: Hudsucker Proxy
XID: Apple:vendor_id:1994-2889
Content ID: 294317592
Copyright: © PolyGram Filmed Entertainment, PolyGram Filmproduktion, Silver Pictures
ScreenWriters: Итан Коэн, Джоэл Коэн, Сэм Рэйми
Producers: Итан Коэн, Джоэл Коэн, Тим Беван
Director: Joel Coen
Cast: Тим Роббинс, Дженнифер Джейсон Ли, Пол Ньюман, Чарльз Дёрнинг, Джон Махони, Джим Тру-Фрост, Билл Коббс, Брюс Кэмпбелл, Гарри Бьюджин
Rating: PG
Long Description: Безработный паренек из провинции оказывается в самом центре Америки — Нью-Йорке, в поисках работы. Благодаря счастливому стечению обстоятельств, его зачисляют в число клерков одной из крупнейших компаний. С этого момента новоиспеченному клерку начинает везти. В результате чиновничьих интриг парень из провинции оказывается председателем компании, и этот поворот судьбы резко меняет его жизнь. Но слава и деньги, о которых когда-то мечтал герой, могут не только возвеличить, но и порядком испортить ему жизнь.
Description: Безработный паренек из провинции оказывается в самом центре Америки — Нью-Йорке, в поисках работы. Благодаря счастливому стечению обстоятельств, его зачисляют в число клерков одной из крупнейших компаний.
Release Date: 1994-03-11T08:00:00Z
Genre: Comedy
Artist: Джоэл Коэн, Итан Коэн
Name: Подручный Хадсакера
Comments: «A Comedy of Invention.»

x264 [info]: frame I:1856 Avg QP:16.46 size: 26797
x264 [info]: frame P:157454 Avg QP:18.54 size: 9173
x264 [info]: mb I I16..4: 35.2% 0.0% 64.8%
x264 [info]: mb P I16..4: 1.8% 0.0% 2.0% P16..4: 49.2% 21.0% 8.8% 1.8% 0.7% skip:14.8%
x264 [info]: coded y,uvDC,uvAC intra: 53.7% 48.3% 26.1% inter: 37.6% 22.7% 10.3%
x264 [info]: i16 v,h,dc,p: 52% 16% 6% 25%
x264 [info]: i4 v,h,dc,ddl,ddr,vr,hd,vl,hu: 31% 16% 13% 6% 8% 9% 6% 7% 4%
x264 [info]: i8c dc,h,v,p: 59% 13% 23% 5%
x264 [info]: ref P L0: 75.7% 24.3%
x264 [info]: kb/s:1798.78

Thx

За исходник спасибо: - BLUEBIRD
Скриншоты:
           
-Время раздачи: 24/7 до 10 скачавших
Other forum [Profile] [PM]
Display posts from previous:    
Reply to topic

The time now is: Today 07:44

All times are GMT + 3 Hours



You cannot post new topics in this forum
You cannot reply to topics in this forum
You cannot edit your posts in this forum
You cannot delete your posts in this forum
You cannot vote in polls in this forum
You cannot attach files in this forum
You cannot download files in this forum