Today is a free download without charge Download

Тайное сияние / Milyang (Ли Чан Дон) [2007 г., драма, мелодрама, BDRip720р]

Reply to topic
 
Author
Message

Delia ®

Gender:

Longevity: 9 years 6 months

Posts: 1821

Торрент-статистика

Post 07-Sep-2011 09:39

[Quote]

Тайное сияниеMilyang Год выпуска: 2007
Страна:Южная Корея
Жанр: драма, мелодрама
Продолжительность: 02:22:34
Перевод: Профессиональный (двухголосый закадровый )
Режиссер: Ли Чан Дон
Продюссер: Ли Ханна, Гук Су Ким, Ли Чан Дон
Сценарий: Ли Чан Дон
Премьера в мире: 17 мая 2007
В ролях: Чон До Ён , Ган Хо Сон, Ен Чжин Чо, Ми Ген Ким
Описание: Хорошенькая, но искалеченная непростой судьбой кореянка, учительница музыки Син Э, бежит из Сеула в тихий, по-провинциальному красивый Мильян, означающий на языке перевода «тайное сияние». В голове — чистые мысли о новой жизни, на руках — непослушный десятилетний пацан и сбережения на покупку земли. Но через неделю мечты обращаются в прах: сына крадут и убивают, а деньги теряются где-то в мусорном мешке.
Качество: BDRip720p
Формат: MKV
Видео кодек: H.264
Аудио кодек: AC3
Видео: English, 4198 Кбит/сек, 1280*544 (2,35:1), в 23,976 кадр/сек, AVC ([email protected])
Аудио: 192 Кбит/сек, 48,0 КГц, 16 бит, 2 канала(ов)AC-3
Субтитры:Russian, Russian (цветные ) VobSub , English - srt

MI:

бщее
Уникальный идентификатор : 170426931765222531012197392803620310241 (0x8037087AA961D2C5A7348FCBC991CCE1)
Полное имя : E:\торрент\SECRET SUNSHINE.2007.BDRip720p.mkv
Формат : Matroska
Размер файла : 4,38 Гбайт
Продолжительность : 2 ч. 22 м.
Общий поток : 4397 Кбит/сек
Дата кодирования : UTC 2011-09-07 05:39:48
Программа кодирования : mkvmerge v4.9.1 ('Ich will') built on Jul 11 2011 23:53:15
Библиотека кодирования : libebml v1.2.1 + libmatroska v1.1.1
Видео
Идентификатор : 1
Формат : AVC
Формат/Информация : Advanced Video Codec
Профиль формата : [email protected]
Параметр CABAC формата : Да
Параметр ReFrames формата : 12 кадры
Идентификатор кодека : V_MPEG4/ISO/AVC
Продолжительность : 2 ч. 22 м.
Битрейт : 4198 Кбит/сек
Ширина : 1280 пикс.
Высота : 544 пикс.
Соотношение сторон : 2,35:1
Частота кадров : 23,976 кадр/сек
Цветовое пространство : YUV
Подвыборка цветности : 4:2:0
Битовая глубина : 8 бит
Тип развёртки : Прогрессивная
Бит/(Пиксели*Кадры) : 0.251
Размер потока : 4,10 Гбайт (94%)
Библиотека кодирования : x264 core 116 r2074 2641b9e
Настройки программы : cabac=1 / ref=12 / deblock=1:-2:-2 / analyse=0x3:0x133 / me=umh / subme=9 / psy=1 / psy_rd=1.00:0.15 / mixed_ref=1 / me_range=32 / chroma_me=1 / trellis=2 / 8x8dct=1 / cqm=0 / deadzone=21,11 / fast_pskip=0 / chroma_qp_offset=-3 / threads=6 / sliced_threads=0 / nr=0 / decimate=1 / interlaced=0 / bluray_compat=0 / constrained_intra=0 / bframes=8 / b_pyramid=2 / b_adapt=2 / b_bias=0 / direct=3 / weightb=1 / open_gop=0 / weightp=2 / keyint=250 / keyint_min=23 / scenecut=40 / intra_refresh=0 / rc_lookahead=50 / rc=2pass / mbtree=1 / bitrate=4198 / ratetol=1.0 / qcomp=0.70 / qpmin=0 / qpmax=69 / qpstep=4 / cplxblur=20.0 / qblur=0.5 / ip_ratio=1.40 / aq=1:1.00
Язык : English
Аудио
Идентификатор : 2
Формат : AC-3
Формат/Информация : Audio Coding 3
Расширение режима : CM (complete main)
Идентификатор кодека : A_AC3
Продолжительность : 2 ч. 22 м.
Вид битрейта : Постоянный
Битрейт : 192 Кбит/сек
Канал(ы) : 2 канала(ов)
Расположение каналов : Front: L R
Частота : 48,0 КГц
Битовая глубина : 16 бит
Метод сжатия : С потерями
Размер потока : 196 Мбайт (4%)
Текст #1
Идентификатор : 3
Формат : VobSub
Режим смешивания : zlib
Идентификатор кодека : S_VOBSUB
Идентификатор кодека/Информация : The same subtitle format used on DVDs
Язык : Russian
Текст #2
Идентификатор : 4
Формат : VobSub
Режим смешивания : zlib
Идентификатор кодека : S_VOBSUB
Идентификатор кодека/Информация : The same subtitle format used on DVDs
Заголовок : color
Язык : Russian
Текст #3
Идентификатор : 5
Формат : UTF-8
Идентификатор кодека : S_TEXT/UTF8
Идентификатор кодека/Информация : UTF-8 Plain Text
Язык : English
Меню
00:00:00.000 : en:00:00:00.000
00:07:54.015 : en:00:07:54.015
00:13:57.128 : en:00:13:57.128
00:17:34.262 : en:00:17:34.262
00:21:22.364 : en:00:21:22.364
00:24:43.440 : en:00:24:43.440
00:28:21.783 : en:00:28:21.783
00:33:31.509 : en:00:33:31.509
00:37:16.943 : en:00:37:16.943
00:42:14.449 : en:00:42:14.449
00:44:41.137 : en:00:44:41.137
00:49:12.992 : en:00:49:12.992
00:52:20.429 : en:00:52:20.429
00:56:34.224 : en:00:56:34.224
01:00:18.990 : en:01:00:18.990
01:04:28.698 : en:01:04:28.698
01:12:00.525 : en:01:12:00.525
01:17:24.014 : en:01:17:24.014
01:22:24.439 : en:01:22:24.439
01:27:12.644 : en:01:27:12.644
01:30:02.814 : en:01:30:02.814
01:34:57.233 : en:01:34:57.233
01:38:54.846 : en:01:38:54.846
01:44:04.905 : en:01:44:04.905
01:49:13.046 : en:01:49:13.046
01:53:06.154 : en:01:53:06.154
01:59:31.081 : en:01:59:31.081
02:05:26.769 : en:02:05:26.769
02:09:32.014 : en:02:09:32.014
02:17:14.518 : en:02:17:14.518
02:19:42.374 : en:02:19:42.374

Скриншоты

         

_________________
Человек – это канат, натянутый между животным и сверхчеловеком, – канат над пропастью.
В человеке ценно то, что он мост, а не цель. Фридрих Ницше


Last edited by Delia on 2011-09-07 10:39; edited 1 time in total
Other forum [Profile] [PM]
Display posts from previous:    
Reply to topic

The time now is: Today 09:30

All times are GMT + 3 Hours



You cannot post new topics in this forum
You cannot reply to topics in this forum
You cannot edit your posts in this forum
You cannot delete your posts in this forum
You cannot vote in polls in this forum
You cannot attach files in this forum
You cannot download files in this forum