Today is a free download without charge Download

Бюро находок / (4 серии) (Олег Чуркин, Борис Акулиничев) [1982-1984 г., мультфильм, рисованный, DVB]

Reply to topic
 
Author
Message

Omen ®

Longevity: 7 years 11 months

Posts: 181087

Торрент-статистика

Post 06-Aug-2013 16:42

[Quote]

Бюро находок / 4 серии
Жанр: мультфильм, рисованный
Год выпуска: 1982-1984
Продолжительность: 00:33:39
Режиссёр: Олег Чуркин, Борис Акулиничев
Описание: мультфильм о том, как пес Тишка и попугай Степаныч, под руководством старика (хозяина Бюро) расследуют различные забавные и криминальные случаи, связанные с потерей вещей ...
1. "Бюро находок. 1 серия" 1982г. – о приключениях бездомного пса Тишки, который в "Бюро находок" стал опытным детективом ...
2. "Бюро находок. 2 серия" 1982г. – нашлась корзина с яйцами. Пёс отправляется на поиски мамы-птицы, которая оказывается ...
3. "Бюро находок. 3 серия" 1983г. – сотрудники "Бюро" нашли пропавшие было у них вещи и обнаружили виновницу этих пропаж ...
4. "Бюро находок. 4 серия" 1984г. – сорока организовала школу "сорочьих наук", в которой решила обучать "искусству" обмана ...
Доп. информация:

Трансляция спутникового канала: "Карусель"
Качество видео: DVB
Формат видео: MPEG-PS
Видео: MPEG2 Video, 720x576, 25 fps, 3700 kbps
Аудио: MPEG Audio, 2 сh, 48 kHz, 192 kbps

MediaInfo

General
Complete name : D:\Бюро находок\1c. Бюро находок (1982)_DVB by SLuMeP.mpg
Format : MPEG-PS
File size : 254 MiB
Duration : 9mn 10s
Overall bit rate mode : Variable
Overall bit rate : 3 873 Kbps
Writing library : (c) 1998-2010 Womble Multimedia, Inc. / MPEG Video Wizard DVD 5.0.0.114 (01/2010) / Apr 20 2010
Video
ID : 224 (0xE0)
Format : MPEG Video
Format version : Version 2
Format profile : [email protected]
Format settings, BVOP : Yes
Format settings, Matrix : Custom
Format settings, GOP : M=3, N=12
Duration : 9mn 10s
Bit rate mode : Variable
Bit rate : 3 604 Kbps
Maximum bit rate : 5 000 Kbps
Width : 720 pixels
Height : 576 pixels
Display aspect ratio : 4:3
Frame rate : 25.000 fps
Standard : PAL
Color space : YUV
Chroma subsampling : 4:2:0
Bit depth : 8 bits
Scan type : Interlaced
Scan order : Top Field First
Compression mode : Lossy
Bits/(Pixel*Frame) : 0.348
Time code of first frame : 00:00:00:00
Time code source : Group of pictures header
Stream size : 237 MiB (93%)
Writing library : (c) 1998-2010 Womble Multimedia, Inc. / MPEG Video Wizard DVD 5.0.0.114 (01/2010) / Apr 20 2010
Audio
ID : 192 (0xC0)
Format : MPEG Audio
Format version : Version 1
Format profile : Layer 2
Duration : 9mn 10s
Bit rate mode : Constant
Bit rate : 192 Kbps
Channel(s) : 2 channels
Sampling rate : 48.0 KHz
Compression mode : Lossy
Stream size : 12.6 MiB (5%)
Other forum [Profile] [PM]
Display posts from previous:    
Reply to topic

The time now is: Today 04:53

All times are GMT + 3 Hours



You cannot post new topics in this forum
You cannot reply to topics in this forum
You cannot edit your posts in this forum
You cannot delete your posts in this forum
You cannot vote in polls in this forum
You cannot attach files in this forum
You cannot download files in this forum