Today is a free download without charge Download

3rdegree - Live At ProgDay 2009 [2009, Crossover Prog / Progressive Rock, Blu-ray]

Reply to topic
 
Author
Message

Omen ®

Longevity: 8 years 4 months

Posts: 181087

Торрент-статистика

Post 06-Aug-2013 16:42

[Quote]

3rdegree - Live At ProgDay 2009
Жанр: Crossover Prog / Progressive Rock
Продолжительность: 01:49:02
Год выпуска: 2009
Описание: Замечательное выступление американской группы 3rdegree на Прогфесте в 2009 году, после объядинения музыкантов в 2007 году. Получилось, на мой взгляд, очень и
очень не плохо.Диск создан усилиями самих музыкантов (есть варианты DVD и Blu-ray). Можно купить на сайте группы, тем самым, поддержать музыкантов финансово!
Доп. информация:
01. Apophenia
02. It Works
03. Be There
04. Memetic Pandemic
05. Free For All
06. The Proverbial Banana Peel
07. 13
08. Dancing Over Scarlet Mist
09. A Work Of Art
10. Black Orchid
11. Scenery
12. The World In Which We Lived
13. Me & Sarah Jane
14. Ladder
15. Prelude To A Bailout
16. The Socio-Economic Petri Dish
17. Live With This Forever
18. Cautionary Tale
Total Time: 01:28:58
bonus material:
(Making Of Narrow-Caster and "Human Interest Story" live from Europa, Brooklyn, NY)
Total time: 00:21:04
Musicians:
- George Dobbs / Vocals, keyboards
- Robert James Pashman / Bass guitar, keyboards, backing vocals
- Pat Kliesch / Guitars, backing vocals
- Aaron Nobel / Drums
Качество: Blu-ray
Контейнер: BDMV
Видео кодек: MPEG-4 AVC
Аудио кодек: PCM
Видео: MPEG-4 AVC Video / 25726 kbps / 1080i / 29,970 fps / 16:9 / High Profile 4.1
Аудио: Undetermined / LPCM Audio / 2.0 / 48 kHz / 2304 kbps / 24-bit

Отчёт MediaInfo / BDInfo

Disc Title: 3rdegree (2009) - Live at ProgdayDisc Size: 24 344 668 502 bytesProtection: AACSBD-Java: NoBDInfo: 0.5.8
Notes:
BDINFO HOME: Cinema Squid http://www.cinemasquid.com/blu-ray/tools/bdinfo
INCLUDES FORUMS REPORT FOR: AVS Forum Blu-ray Audio and Video Specifications Thread http://www.avsforum.com/avs-vb/showthread.php?t=1155731
********************PLAYLIST: 00001.MPLS********************
Код:
Total   Video
Title                                                           Codec   Length  Movie Size      Disc Size       Bitrate Bitrate Main Audio Track
Secondary Audio Track
-----                                                           ------  ------- --------------  --------------  ------- ------- ------------------
---------------------
00001.MPLS                                                      AVC     1:28:58 19 657 175 040  24 344 668 502  29,46   25,73   LPCM 2.0 2304Kbps (48kHz/24-bit)
Код:
DISC INFO:
Disc Title:     3rdegree (2009) - Live at Progday
Disc Size:      24 344 668 502 bytes
Protection:     AACS
BD-Java:        No
BDInfo:         0.5.8
PLAYLIST REPORT:
Name:                   00001.MPLS
Length:                 1:28:58.399 (h:m:s.ms)
Size:                   19 657 175 040 bytes
Total Bitrate:          29,46 Mbps
VIDEO:
Codec                   Bitrate             Description
-----                   -------             -----------
MPEG-4 AVC Video        25726 kbps          1080i / 29,970 fps / 16:9 / High Profile 4.1
AUDIO:
Codec                           Language        Bitrate         Description
-----                           --------        -------         -----------
LPCM Audio                      Undetermined    2304 kbps       2.0 / 48 kHz / 2304 kbps / 24-bit
FILES:
Name            Time In         Length          Size            Total Bitrate
----            -------         ------          ----            -------------
00001.M2TS      0:00:00.000     1:28:58.399     19 657 175 040  29 458
CHAPTERS:
Number          Time In         Length          Avg Video Rate  Max 1-Sec Rate  Max 1-Sec Time  Max 5-Sec Rate  Max 5-Sec Time  Max 10Sec Rate  Max 10Sec Time  Avg Frame
Size  Max Frame Size  Max Frame Time
------          -------         ------          --------------  --------------  --------------  --------------  --------------  --------------  --------------
--------------  --------------  --------------
1               0:00:00.000     0:01:30.223     26 062 kbps     63 617 kbps     00:00:06.439    35 364 kbps     00:00:06.439    31 712 kbps     00:00:06.439    108 659
bytes   678 941 bytes   00:00:06.940
2               0:01:30.223     0:04:46.185     26 006 kbps     44 020 kbps     00:04:28.368    31 428 kbps     00:02:04.290    28 891 kbps     00:02:53.473    108 466
bytes   707 982 bytes   00:04:28.401
3               0:06:16.409     0:05:16.749     25 968 kbps     46 722 kbps     00:10:19.452    32 014 kbps     00:09:39.779    28 488 kbps     00:06:35.161    108 309
bytes   685 565 bytes   00:07:36.456
4               0:11:33.159     0:04:24.230     26 010 kbps     40 442 kbps     00:14:59.031    30 838 kbps     00:14:03.375    28 512 kbps     00:14:42.281    108 484
bytes   684 863 bytes   00:11:55.748
5               0:15:57.389     0:08:16.896     26 001 kbps     45 292 kbps     00:16:05.297    31 255 kbps     00:18:32.778    28 852 kbps     00:15:58.357    108 461
bytes   728 940 bytes   00:19:41.713
6               0:24:14.286     0:04:26.199     26 055 kbps     42 989 kbps     00:28:06.384    30 780 kbps     00:26:42.634    28 190 kbps     00:26:25.550    108 673
bytes   679 267 bytes   00:28:06.551
7               0:28:40.485     0:03:33.846     25 913 kbps     47 459 kbps     00:29:03.742    31 595 kbps     00:31:20.478    28 204 kbps     00:30:05.637    108 081
bytes   665 479 bytes   00:29:53.324
8               0:32:14.332     0:02:53.039     26 073 kbps     47 812 kbps     00:32:31.950    32 892 kbps     00:32:31.983    28 723 kbps     00:32:27.211    108 746
bytes   802 150 bytes   00:32:32.016
9               0:35:07.371     0:02:39.959     25 992 kbps     43 048 kbps     00:37:15.533    30 718 kbps     00:37:13.264    28 768 kbps     00:36:46.604    108 407
bytes   637 602 bytes   00:37:15.566
10              0:37:47.331     0:03:17.096     25 975 kbps     42 212 kbps     00:39:48.619    30 792 kbps     00:40:52.917    28 442 kbps     00:40:47.912    108 337
bytes   720 888 bytes   00:39:48.652
11              0:41:04.428     0:03:37.750     26 039 kbps     45 056 kbps     00:41:14.038    30 296 kbps     00:41:11.669    28 068 kbps     00:42:30.514    108 603
bytes   647 564 bytes   00:41:14.171
12              0:44:42.179     0:06:10.269     25 978 kbps     47 005 kbps     00:45:11.108    32 599 kbps     00:50:28.058    28 838 kbps     00:45:10.941    108 349
bytes   839 866 bytes   00:45:11.141
13              0:50:52.449     0:05:16.716     26 008 kbps     42 344 kbps     00:55:02.799    31 335 kbps     00:55:40.970    29 034 kbps     00:53:23.600    108 473
bytes   818 049 bytes   00:52:19.302
14              0:56:09.165     0:05:36.035     25 976 kbps     43 485 kbps     01:00:53.983    31 152 kbps     00:58:56.466    29 096 kbps     01:01:24.580    108 340
bytes   755 812 bytes   00:57:59.175
15              1:01:45.201     0:07:39.826     26 008 kbps     40 322 kbps     01:04:41.377    30 117 kbps     01:08:17.293    28 095 kbps     01:01:46.002    108 475
bytes   784 115 bytes   01:05:28.958
16              1:09:25.027     0:01:39.999     26 091 kbps     41 280 kbps     01:09:25.227    30 762 kbps     01:10:31.827    28 587 kbps     01:09:42.711    108 821
bytes   814 902 bytes   01:09:43.312
17              1:11:05.027     0:05:25.291     26 008 kbps     46 192 kbps     01:11:57.046    30 906 kbps     01:14:24.193    28 269 kbps     01:12:11.360    108 474
bytes   807 859 bytes   01:11:57.079
18              1:16:30.319     0:05:29.829     25 978 kbps     43 216 kbps     01:21:38.493    30 510 kbps     01:19:35.137    28 591 kbps     01:19:32.234    108 351
bytes   634 122 bytes   01:19:03.472
19              1:22:00.148     0:05:22.288     26 011 kbps     44 202 kbps     01:27:06.721    31 330 kbps     01:27:06.554    28 553 kbps     01:27:00.915    108 486
bytes   661 432 bytes   01:27:06.888
20              1:27:22.437     0:01:35.962     10 673 kbps     41 366 kbps     01:27:24.839    29 951 kbps     01:27:24.405    28 019 kbps     01:27:24.405    44 529
bytes    665 966 bytes   01:27:24.906
STREAM DIAGNOSTICS:
File            PID             Type            Codec           Language                Seconds                 Bitrate                 Bytes           Packets
----            ---             ----            -----           --------                --------------          --------------          -------------   -----
00001.M2TS      4113 (0x1011)   0x1B            AVC                                     5338,333                25 726                  17 167 061 387  93 392 938
00001.M2TS      4352 (0x1100)   0x80            LPCM            und (Undetermined)      5338,333                2 310                   1 541 716 740   8 541 367
QUICK SUMMARY:
Disc Title: 3rdegree (2009) - Live at ProgdayDisc Size: 24 344 668 502 bytesProtection: AACSBD-Java: NoPlaylist: 00001.MPLSSize: 19 657 175 040 bytesLength: 1:28:58.399Total Bitrate: 29,46 MbpsVideo: MPEG-4 AVC Video / 25726 kbps / 1080i / 29,970 fps / 16:9 / High Profile 4.1Audio: Undetermined / LPCM Audio / 2.0 / 48 kHz / 2304 kbps / 24-bit
********************PLAYLIST: 00004.MPLS********************
Код:
Total   Video
Title                                                           Codec   Length  Movie Size      Disc Size       Bitrate Bitrate Main Audio Track
Secondary Audio Track
-----                                                           ------  ------- --------------  --------------  ------- ------- ------------------
---------------------
00004.MPLS                                                      AVC     0:07:02 1 567 549 440   24 344 668 502  29,72   25,97   LPCM 2.0 2304Kbps (48kHz/24-bit)
Код:
DISC INFO:
Disc Title:     3rdegree (2009) - Live at Progday
Disc Size:      24 344 668 502 bytes
Protection:     AACS
BD-Java:        No
BDInfo:         0.5.8
PLAYLIST REPORT:
Name:                   00004.MPLS
Length:                 0:07:02.021 (h:m:s.ms)
Size:                   1 567 549 440 bytes
Total Bitrate:          29,72 Mbps
VIDEO:
Codec                   Bitrate             Description
-----                   -------             -----------
MPEG-4 AVC Video        25973 kbps          1080i / 29,970 fps / 16:9 / High Profile 4.1
AUDIO:
Codec                           Language        Bitrate         Description
-----                           --------        -------         -----------
LPCM Audio                      Undetermined    2304 kbps       2.0 / 48 kHz / 2304 kbps / 24-bit
FILES:
Name            Time In         Length          Size            Total Bitrate
----            -------         ------          ----            -------------
00004.M2TS      0:00:00.000     0:07:02.021     1 567 549 440   29 715
CHAPTERS:
Number          Time In         Length          Avg Video Rate  Max 1-Sec Rate  Max 1-Sec Time  Max 5-Sec Rate  Max 5-Sec Time  Max 10Sec Rate  Max 10Sec Time  Avg Frame
Size  Max Frame Size  Max Frame Time
------          -------         ------          --------------  --------------  --------------  --------------  --------------  --------------  --------------
--------------  --------------  --------------
1               0:00:00.000     0:07:02.021     25 973 kbps     39 460 kbps     00:00:00.100    29 536 kbps     00:00:07.674    27 599 kbps     00:00:09.275    108 328
bytes   434 272 bytes   00:03:31.544
STREAM DIAGNOSTICS:
File            PID             Type            Codec           Language                Seconds                 Bitrate                 Bytes           Packets
----            ---             ----            -----           --------                --------------          --------------          -------------   -----
00004.M2TS      4113 (0x1011)   0x1B            AVC                                     421,888                 25 981                  1 370 138 166   7 453 801
00004.M2TS      4352 (0x1100)   0x80            LPCM            und (Undetermined)      421,888                 2 311                   121 870 712     675 184
QUICK SUMMARY:
Disc Title: 3rdegree (2009) - Live at ProgdayDisc Size: 24 344 668 502 bytesProtection: AACSBD-Java: NoPlaylist: 00004.MPLSSize: 1 567 549 440 bytesLength: 0:07:02.021Total Bitrate: 29,72 MbpsVideo: MPEG-4 AVC Video / 25973 kbps / 1080i / 29,970 fps / 16:9 / High Profile 4.1Audio: Undetermined / LPCM Audio / 2.0 / 48 kHz / 2304 kbps / 24-bit
********************PLAYLIST: 00002.MPLS********************
Код:
Total   Video
Title                                                           Codec   Length  Movie Size      Disc Size       Bitrate Bitrate Main Audio Track
Secondary Audio Track
-----                                                           ------  ------- --------------  --------------  ------- ------- ------------------
---------------------
00002.MPLS                                                      AVC     0:05:04 1 111 142 400   24 344 668 502  29,22   25,50   LPCM 2.0 2304Kbps (48kHz/24-bit)
Код:
DISC INFO:
Disc Title:     3rdegree (2009) - Live at Progday
Disc Size:      24 344 668 502 bytes
Protection:     AACS
BD-Java:        No
BDInfo:         0.5.8
PLAYLIST REPORT:
Name:                   00002.MPLS
Length:                 0:05:04.237 (h:m:s.ms)
Size:                   1 111 142 400 bytes
Total Bitrate:          29,22 Mbps
VIDEO:
Codec                   Bitrate             Description
-----                   -------             -----------
MPEG-4 AVC Video        25496 kbps          1080i / 29,970 fps / 16:9 / High Profile 4.1
AUDIO:
Codec                           Language        Bitrate         Description
-----                           --------        -------         -----------
LPCM Audio                      Undetermined    2304 kbps       2.0 / 48 kHz / 2304 kbps / 24-bit
FILES:
Name            Time In         Length          Size            Total Bitrate
----            -------         ------          ----            -------------
00002.M2TS      0:00:00.000     0:05:04.237     1 111 142 400   29 218
CHAPTERS:
Number          Time In         Length          Avg Video Rate  Max 1-Sec Rate  Max 1-Sec Time  Max 5-Sec Rate  Max 5-Sec Time  Max 10Sec Rate  Max 10Sec Time  Avg Frame
Size  Max Frame Size  Max Frame Time
------          -------         ------          --------------  --------------  --------------  --------------  --------------  --------------  --------------
--------------  --------------  --------------
1               0:00:00.000     0:05:04.237     25 496 kbps     63 226 kbps     00:00:04.604    35 520 kbps     00:00:04.704    31 815 kbps     00:04:38.378    106 340
bytes   582 130 bytes   00:04:38.478
STREAM DIAGNOSTICS:
File            PID             Type            Codec           Language                Seconds                 Bitrate                 Bytes           Packets
----            ---             ----            -----           --------                --------------          --------------          -------------   -----
00002.M2TS      4113 (0x1011)   0x1B            AVC                                     304,137                 25 504                  969 605 222     5 274 998
00002.M2TS      4352 (0x1100)   0x80            LPCM            und (Undetermined)      304,137                 2 311                   87 854 404      486 728
QUICK SUMMARY:
Disc Title: 3rdegree (2009) - Live at ProgdayDisc Size: 24 344 668 502 bytesProtection: AACSBD-Java: NoPlaylist: 00002.MPLSSize: 1 111 142 400 bytesLength: 0:05:04.237Total Bitrate: 29,22 MbpsVideo: MPEG-4 AVC Video / 25496 kbps / 1080i / 29,970 fps / 16:9 / High Profile 4.1Audio: Undetermined / LPCM Audio / 2.0 / 48 kHz / 2304 kbps / 24-bit
********************PLAYLIST: 00003.MPLS********************
Код:
Total   Video
Title                                                           Codec   Length  Movie Size      Disc Size       Bitrate Bitrate Main Audio Track
Secondary Audio Track
-----                                                           ------  ------- --------------  --------------  ------- ------- ------------------
---------------------
00003.MPLS                                                      AVC     0:03:35 775 139 328     24 344 668 502  28,83   25,13   LPCM 2.0 2304Kbps (48kHz/24-bit)
Код:
DISC INFO:
Disc Title:     3rdegree (2009) - Live at Progday
Disc Size:      24 344 668 502 bytes
Protection:     AACS
BD-Java:        No
BDInfo:         0.5.8
PLAYLIST REPORT:
Name:                   00003.MPLS
Length:                 0:03:35.081 (h:m:s.ms)
Size:                   775 139 328 bytes
Total Bitrate:          28,83 Mbps
VIDEO:
Codec                   Bitrate             Description
-----                   -------             -----------
MPEG-4 AVC Video        25126 kbps          1080i / 29,970 fps / 16:9 / High Profile 4.1
AUDIO:
Codec                           Language        Bitrate         Description
-----                           --------        -------         -----------
LPCM Audio                      Undetermined    2304 kbps       2.0 / 48 kHz / 2304 kbps / 24-bit
FILES:
Name            Time In         Length          Size            Total Bitrate
----            -------         ------          ----            -------------
00003.M2TS      0:00:00.000     0:03:35.081     775 139 328     28 831
CHAPTERS:
Number          Time In         Length          Avg Video Rate  Max 1-Sec Rate  Max 1-Sec Time  Max 5-Sec Rate  Max 5-Sec Time  Max 10Sec Rate  Max 10Sec Time  Avg Frame
Size  Max Frame Size  Max Frame Time
------          -------         ------          --------------  --------------  --------------  --------------  --------------  --------------  --------------
--------------  --------------  --------------
1               0:00:00.000     0:03:35.081     25 126 kbps     46 868 kbps     00:00:01.001    30 846 kbps     00:00:00.500    27 879 kbps     00:00:00.600    104 797
bytes   508 572 bytes   00:00:01.501
STREAM DIAGNOSTICS:
File            PID             Type            Codec           Language                Seconds                 Bitrate                 Bytes           Packets
----            ---             ----            -----           --------                --------------          --------------          -------------   -----
00003.M2TS      4113 (0x1011)   0x1B            AVC                                     214,981                 25 138                  675 521 059     3 675 099
00003.M2TS      4352 (0x1100)   0x80            LPCM            und (Undetermined)      214,981                 2 311                   62 106 440      344 080
QUICK SUMMARY:
Disc Title: 3rdegree (2009) - Live at ProgdayDisc Size: 24 344 668 502 bytesProtection: AACSBD-Java: NoPlaylist: 00003.MPLSSize: 775 139 328 bytesLength: 0:03:35.081Total Bitrate: 28,83 MbpsVideo: MPEG-4 AVC Video / 25126 kbps / 1080i / 29,970 fps / 16:9 / High Profile 4.1Audio: Undetermined / LPCM Audio / 2.0 / 48 kHz / 2304 kbps / 24-bit
********************PLAYLIST: 00005.MPLS********************
Код:
Total   Video
Title                                                           Codec   Length  Movie Size      Disc Size       Bitrate Bitrate Main Audio Track
Secondary Audio Track
-----                                                           ------  ------- --------------  --------------  ------- ------- ------------------
---------------------
00005.MPLS                                                      AVC     0:02:49 629 458 944     24 344 668 502  29,73   25,98   LPCM 2.0 2304Kbps (48kHz/24-bit)
Код:
DISC INFO:
Disc Title:     3rdegree (2009) - Live at Progday
Disc Size:      24 344 668 502 bytes
Protection:     AACS
BD-Java:        No
BDInfo:         0.5.8
PLAYLIST REPORT:
Name:                   00005.MPLS
Length:                 0:02:49.402 (h:m:s.ms)
Size:                   629 458 944 bytes
Total Bitrate:          29,73 Mbps
VIDEO:
Codec                   Bitrate             Description
-----                   -------             -----------
MPEG-4 AVC Video        25984 kbps          1080i / 29,970 fps / 16:9 / High Profile 4.1
AUDIO:
Codec                           Language        Bitrate         Description
-----                           --------        -------         -----------
LPCM Audio                      Undetermined    2304 kbps       2.0 / 48 kHz / 2304 kbps / 24-bit
FILES:
Name            Time In         Length          Size            Total Bitrate
----            -------         ------          ----            -------------
00005.M2TS      0:00:00.000     0:02:49.402     629 458 944     29 726
CHAPTERS:
Number          Time In         Length          Avg Video Rate  Max 1-Sec Rate  Max 1-Sec Time  Max 5-Sec Rate  Max 5-Sec Time  Max 10Sec Rate  Max 10Sec Time  Avg Frame
Size  Max Frame Size  Max Frame Time
------          -------         ------          --------------  --------------  --------------  --------------  --------------  --------------  --------------
--------------  --------------  --------------
1               0:00:00.000     0:02:49.402     25 984 kbps     41 691 kbps     00:00:00.467    28 476 kbps     00:01:33.960    27 433 kbps     00:01:34.194    108 374
bytes   375 691 bytes   00:00:01.001
STREAM DIAGNOSTICS:
File            PID             Type            Codec           Language                Seconds                 Bitrate                 Bytes           Packets
----            ---             ----            -----           --------                --------------          --------------          -------------   -----
00005.M2TS      4113 (0x1011)   0x1B            AVC                                     169,336                 25 994                  550 215 318     2 993 241
00005.M2TS      4352 (0x1100)   0x80            LPCM            und (Undetermined)      169,336                 2 311                   48 914 056      270 992
QUICK SUMMARY:
Disc Title: 3rdegree (2009) - Live at ProgdayDisc Size: 24 344 668 502 bytesProtection: AACSBD-Java: NoPlaylist: 00005.MPLSSize: 629 458 944 bytesLength: 0:02:49.402Total Bitrate: 29,73 MbpsVideo: MPEG-4 AVC Video / 25984 kbps / 1080i / 29,970 fps / 16:9 / High Profile 4.1Audio: Undetermined / LPCM Audio / 2.0 / 48 kHz / 2304 kbps / 24-bit
********************PLAYLIST: 00006.MPLS********************
Код:
Total   Video
Title                                                           Codec   Length  Movie Size      Disc Size       Bitrate Bitrate Main Audio Track
Secondary Audio Track
-----                                                           ------  ------- --------------  --------------  ------- ------- ------------------
---------------------
00006.MPLS                                                      AVC     0:01:21 301 215 744     24 344 668 502  29,65   25,91   LPCM 2.0 2304Kbps (48kHz/24-bit)
Код:
DISC INFO:
Disc Title:     3rdegree (2009) - Live at Progday
Disc Size:      24 344 668 502 bytes
Protection:     AACS
BD-Java:        No
BDInfo:         0.5.8
PLAYLIST REPORT:
Name:                   00006.MPLS
Length:                 0:01:21.281 (h:m:s.ms)
Size:                   301 215 744 bytes
Total Bitrate:          29,65 Mbps
VIDEO:
Codec                   Bitrate             Description
-----                   -------             -----------
MPEG-4 AVC Video        25908 kbps          1080i / 29,970 fps / 16:9 / High Profile 4.1
AUDIO:
Codec                           Language        Bitrate         Description
-----                           --------        -------         -----------
LPCM Audio                      Undetermined    2304 kbps       2.0 / 48 kHz / 2304 kbps / 24-bit
FILES:
Name            Time In         Length          Size            Total Bitrate
----            -------         ------          ----            -------------
00006.M2TS      0:00:00.000     0:01:21.281     301 215 744     29 647
CHAPTERS:
Number          Time In         Length          Avg Video Rate  Max 1-Sec Rate  Max 1-Sec Time  Max 5-Sec Rate  Max 5-Sec Time  Max 10Sec Rate  Max 10Sec Time  Avg Frame
Size  Max Frame Size  Max Frame Time
------          -------         ------          --------------  --------------  --------------  --------------  --------------  --------------  --------------
--------------  --------------  --------------
1               0:00:00.000     0:01:21.281     25 908 kbps     45 424 kbps     00:00:00.300    28 274 kbps     00:00:00.300    26 938 kbps     00:00:09.809    108 058
bytes   418 718 bytes   00:00:00.533
STREAM DIAGNOSTICS:
File            PID             Type            Codec           Language                Seconds                 Bitrate                 Bytes           Packets
----            ---             ----            -----           --------                --------------          --------------          -------------   -----
00006.M2TS      4113 (0x1011)   0x1B            AVC                                     81,214                  25 929                  263 229 986     1 432 018
00006.M2TS      4352 (0x1100)   0x80            LPCM            und (Undetermined)      81,214                  2 311                   23 465 000      130 000
QUICK SUMMARY:
Disc Title: 3rdegree (2009) - Live at ProgdayDisc Size: 24 344 668 502 bytesProtection: AACSBD-Java: NoPlaylist: 00006.MPLSSize: 301 215 744 bytesLength: 0:01:21.281Total Bitrate: 29,65 MbpsVideo: MPEG-4 AVC Video / 25908 kbps / 1080i / 29,970 fps / 16:9 / High Profile 4.1Audio: Undetermined / LPCM Audio / 2.0 / 48 kHz / 2304 kbps / 24-bit
********************PLAYLIST: 00007.MPLS********************
Код:
Total   Video
Title                                                           Codec   Length  Movie Size      Disc Size       Bitrate Bitrate Main Audio Track
Secondary Audio Track
-----                                                           ------  ------- --------------  --------------  ------- ------- ------------------
---------------------
00007.MPLS                                                      AVC     0:01:20 299 735 040     24 344 668 502  29,67   25,93   LPCM 2.0 2304Kbps (48kHz/24-bit)
Код:
DISC INFO:
Disc Title:     3rdegree (2009) - Live at Progday
Disc Size:      24 344 668 502 bytes
Protection:     AACS
BD-Java:        No
BDInfo:         0.5.8
PLAYLIST REPORT:
Name:                   00007.MPLS
Length:                 0:01:20.814 (h:m:s.ms)
Size:                   299 735 040 bytes
Total Bitrate:          29,67 Mbps
VIDEO:
Codec                   Bitrate             Description
-----                   -------             -----------
MPEG-4 AVC Video        25932 kbps          1080i / 29,970 fps / 16:9 / High Profile 4.1
AUDIO:
Codec                           Language        Bitrate         Description
-----                           --------        -------         -----------
LPCM Audio                      Undetermined    2304 kbps       2.0 / 48 kHz / 2304 kbps / 24-bit
FILES:
Name            Time In         Length          Size            Total Bitrate
----            -------         ------          ----            -------------
00007.M2TS      0:00:00.000     0:01:20.814     299 735 040     29 672
CHAPTERS:
Number          Time In         Length          Avg Video Rate  Max 1-Sec Rate  Max 1-Sec Time  Max 5-Sec Rate  Max 5-Sec Time  Max 10Sec Rate  Max 10Sec Time  Avg Frame
Size  Max Frame Size  Max Frame Time
------          -------         ------          --------------  --------------  --------------  --------------  --------------  --------------  --------------
--------------  --------------  --------------
1               0:00:00.000     0:01:20.814     25 932 kbps     40 557 kbps     00:00:00.200    28 184 kbps     00:00:00.200    27 495 kbps     00:00:00.200    108 157
bytes   370 794 bytes   00:00:00.500
STREAM DIAGNOSTICS:
File            PID             Type            Codec           Language                Seconds                 Bitrate                 Bytes           Packets
----            ---             ----            -----           --------                --------------          --------------          -------------   -----
00007.M2TS      4113 (0x1011)   0x1B            AVC                                     80,747                  25 953                  261 956 590     1 425 094
00007.M2TS      4352 (0x1100)   0x80            LPCM            und (Undetermined)      80,747                  2 311                   23 330 708      129 256
QUICK SUMMARY:
Disc Title: 3rdegree (2009) - Live at ProgdayDisc Size: 24 344 668 502 bytesProtection: AACSBD-Java: NoPlaylist: 00007.MPLSSize: 299 735 040 bytesLength: 0:01:20.814Total Bitrate: 29,67 MbpsVideo: MPEG-4 AVC Video / 25932 kbps / 1080i / 29,970 fps / 16:9 / High Profile 4.1Audio: Undetermined / LPCM Audio / 2.0 / 48 kHz / 2304 kbps / 24-bit

Скриншоты



Первый робкий шажок, в данном разделе. Если можно, "не бейте ногами", укажите, пожалуйста, на недостатки. Критику приму с радостью!
Other forum [Profile] [PM]
Display posts from previous:    
Reply to topic

The time now is: Today 16:35

All times are GMT + 3 Hours



You cannot post new topics in this forum
You cannot reply to topics in this forum
You cannot edit your posts in this forum
You cannot delete your posts in this forum
You cannot vote in polls in this forum
You cannot attach files in this forum
You cannot download files in this forum