Today is a free download without charge Download

Aerosmith - Rock for the Rising Sun [2013, rock, Blu-ray]

Reply to topic
 
Author
Message

Omen ®

Longevity: 8 years 3 months

Posts: 181087

Торрент-статистика

Post 06-Aug-2013 04:36

[Quote]

AEROSMITH - ROCK FOR THE RISING SUN- - Оригинальное название: Aerosmith - Rock for the Rising Sun
Жанр: rock
Продолжительность: 01:34:32
Год выпуска: 2011/2013
Выпущено: Eagle Rock Entertainment
Исполнители: Steven Tyler – lead vocals, harmonica, piano, percussion; Tom Hamilton – bass, backing vocals; Joey Kramer – drums; Joe Perry – lead guitar, rhythm guitar, backing vocals, lead vocals; Brad Whitford – rhythm guitar, backing vocals

In March 2011 Japan was beset by a huge earthquake, a monstrous tsunami and the subsequent meltdown of the Fukushima nuclear plant. In the autumn of 2011, despite advice to the contrary, Aerosmith brought their Back On The Road tour to Japan, a country with which they'd always had a special relationship. The Japanese fans came out in their droves and Aerosmith responded with some of the finest gigs of their distinguished career. This film follows the band on that tour combining full length live tracks with behind the scenes footage which is at times touching and emotional and at others humorous and insightful. More than anything else it demonstrates the Japanese fans love affair with Aerosmith and their music.
Quote:
-Треклист:
01. Draw the Line
02. Love in an Elevator
03. Livin' on the Edge
04. Hangman Jury
05. No More No More
06. Mama Kin
07. Money on My Back
08. Toys in the Attic
09. Listen to the Thunder
10. Sweet Emotion
11. Boogie Man
12. Rats in the Cellar
13. Movin' Out
14. Last Child
15. S.O.S. (Too Bad)
16. Walk This Way
17. Train Kept a Rollin'
Бонус:
• Lick and a Promise (1080i; 3:32)
• One Way Street (1080i; 6:47)
-
-Качество: Blu-ray
Контейнер: BDMV
Видео кодек: AVC
Аудио кодек: DTS, PCM
Видео: MPEG-4 AVC 29996 kbps 1920*1080i / 29.970 fps / 16:9 / High Profile 4.1
Аудио#1: English DTS-HD MA 5.1 / 48 kHz / 2918 kbps / 16-bit (DTS Core: 5.1 / 48 kHz / 1509 kbps / 16-bit)
Аудио#2: English LPCM 2.0 / 48 kHz / 1536 kbps / 16-bit
Субтитры: English, German, Spanish, French, Italian, Dutch, Portuguese
-

BDInfo

Disc Title: AEROSMITH_ROCK_FOR_THE_RISING_SUN_v99Disc Size: 29 793 821 457 bytesProtection: AACSBD-Java: NoBDInfo: 0.5.8
Notes:
BDINFO HOME: Cinema Squid http://www.cinemasquid.com/blu-ray/tools/bdinfo
INCLUDES FORUMS REPORT FOR: AVS Forum Blu-ray Audio and Video Specifications Thread http://www.avsforum.com/avs-vb/showthread.php?t=1155731
********************PLAYLIST: 00005.MPLS********************
Код:
Total   Video
Title                                                           Codec   Length  Movie Size      Disc Size       Bitrate Bitrate Main Audio Track                          Secondary Audio Track
-----                                                           ------  ------- --------------  --------------  ------- ------- ------------------                        ---------------------
00005.MPLS                                                      AVC     1:34:32 25 938 886 656  29 793 821 457  36,58   30,00   LPCM 2.0 1536Kbps (48kHz/16-bit)          DTS-HD Master 5.1 2918Kbps (48kHz/16-bit)
Код:
DISC INFO:
Disc Title:     AEROSMITH_ROCK_FOR_THE_RISING_SUN_v99
Disc Size:      29 793 821 457 bytes
Protection:     AACS
BD-Java:        No
BDInfo:         0.5.8
PLAYLIST REPORT:
Name:                   00005.MPLS
Length:                 1:34:32.033 (h:m:s.ms)
Size:                   25 938 886 656 bytes
Total Bitrate:          36,58 Mbps
VIDEO:
Codec                   Bitrate             Description
-----                   -------             -----------
MPEG-4 AVC Video        29996 kbps          1080i / 29,970 fps / 16:9 / High Profile 4.1
AUDIO:
Codec                           Language        Bitrate         Description
-----                           --------        -------         -----------
LPCM Audio                      English         1536 kbps       2.0 / 48 kHz / 1536 kbps / 16-bit
DTS-HD Master Audio             English         2918 kbps       5.1 / 48 kHz / 2918 kbps / 16-bit (DTS Core: 5.1 / 48 kHz / 1509 kbps / 16-bit)
SUBTITLES:
Codec                           Language        Bitrate         Description
-----                           --------        -------         -----------
Presentation Graphics           English         8,931 kbps
Presentation Graphics           German          9,067 kbps
Presentation Graphics           Spanish         9,915 kbps
Presentation Graphics           French          9,050 kbps
Presentation Graphics           Italian         8,752 kbps
Presentation Graphics           Dutch           8,540 kbps
Presentation Graphics           Portuguese      9,852 kbps
FILES:
Name            Time In         Length          Size            Total Bitrate
----            -------         ------          ----            -------------
00008.M2TS      0:00:00.000     1:34:32.033     25 938 886 656  36 585
CHAPTERS:
Number          Time In         Length          Avg Video Rate  Max 1-Sec Rate  Max 1-Sec Time  Max 5-Sec Rate  Max 5-Sec Time  Max 10Sec Rate  Max 10Sec Time  Avg Frame Size  Max Frame Size  Max Frame Time
------          -------         ------          --------------  --------------  --------------  --------------  --------------  --------------  --------------  --------------  --------------  --------------
1               0:00:00.000     0:01:10.336     12 562 kbps     46 816 kbps     00:01:01.227    35 821 kbps     00:00:57.223    34 399 kbps     00:00:52.218    52 371 bytes    557 464 bytes   00:01:02.095
2               0:01:10.336     0:04:47.153     29 990 kbps     36 283 kbps     00:04:06.346    33 191 kbps     00:03:55.468    32 860 kbps     00:04:38.044    125 085 bytes   311 598 bytes   00:01:22.182
3               0:05:57.490     0:07:34.954     30 910 kbps     38 502 kbps     00:06:51.511    33 868 kbps     00:06:47.540    33 143 kbps     00:09:54.393    128 921 bytes   347 717 bytes   00:05:58.491
4               0:13:32.444     0:05:37.870     29 275 kbps     38 613 kbps     00:17:55.107    33 472 kbps     00:16:41.667    33 022 kbps     00:16:43.669    122 102 bytes   442 948 bytes   00:13:36.482
5               0:19:10.315     0:03:05.251     32 519 kbps     38 518 kbps     00:19:48.854    34 069 kbps     00:22:10.028    33 560 kbps     00:22:05.023    135 633 bytes   306 347 bytes   00:19:21.460
6               0:22:15.567     0:06:27.053     28 094 kbps     36 522 kbps     00:22:53.672    33 338 kbps     00:28:11.456    32 969 kbps     00:28:09.454    117 174 bytes   346 045 bytes   00:28:16.995
7               0:28:42.620     0:07:06.993     28 405 kbps     37 943 kbps     00:31:12.103    33 740 kbps     00:31:08.099    33 247 kbps     00:31:03.094    118 472 bytes   349 307 bytes   00:34:06.411
8               0:35:49.614     0:04:10.483     30 976 kbps     35 936 kbps     00:37:29.981    33 335 kbps     00:37:25.977    33 029 kbps     00:36:05.263    129 197 bytes   425 082 bytes   00:39:06.744
9               0:40:00.097     0:03:56.269     32 468 kbps     36 432 kbps     00:42:32.716    33 396 kbps     00:40:28.993    33 071 kbps     00:43:21.632    135 420 bytes   338 385 bytes   00:43:56.367
10              0:43:56.367     0:05:02.435     31 312 kbps     36 270 kbps     00:45:42.606    33 403 kbps     00:47:32.683    33 077 kbps     00:47:02.686    130 599 bytes   457 908 bytes   00:47:37.421
11              0:48:58.802     0:10:09.675     30 868 kbps     37 894 kbps     00:58:41.885    33 567 kbps     00:58:37.881    33 289 kbps     00:58:32.876    128 746 bytes   354 715 bytes   00:55:25.221
12              0:59:08.478     0:02:32.418     30 613 kbps     35 071 kbps     01:01:30.253    33 160 kbps     01:00:39.035    32 975 kbps     01:00:33.997    127 681 bytes   320 772 bytes   01:01:24.614
13              1:01:40.897     0:05:38.071     31 204 kbps     37 765 kbps     01:06:37.526    33 853 kbps     01:06:19.375    33 245 kbps     01:06:14.370    130 147 bytes   327 380 bytes   01:06:57.413
14              1:07:18.968     0:06:08.301     32 467 kbps     41 020 kbps     01:11:11.734    34 249 kbps     01:11:07.696    33 464 kbps     01:11:02.925    135 416 bytes   352 887 bytes   01:13:11.153
15              1:13:27.269     0:09:29.669     29 898 kbps     40 446 kbps     01:21:52.540    33 907 kbps     01:20:15.143    33 334 kbps     01:20:10.138    124 698 bytes   383 482 bytes   01:21:25.413
16              1:22:56.938     0:03:35.081     29 432 kbps     37 139 kbps     01:22:59.107    32 963 kbps     01:23:02.877    32 860 kbps     01:25:08.703    122 754 bytes   296 896 bytes   01:24:26.061
17              1:26:32.020     0:06:28.020     29 601 kbps     40 187 kbps     01:28:19.193    34 006 kbps     01:26:59.681    33 063 kbps     01:32:37.385    123 460 bytes   352 457 bytes   01:27:32.213
18              1:33:00.041     0:01:31.991     20 905 kbps     35 542 kbps     01:34:03.004    31 870 kbps     01:33:59.000    31 581 kbps     01:33:54.228    87 222 bytes    344 430 bytes   01:34:03.471
STREAM DIAGNOSTICS:
File            PID             Type            Codec           Language                Seconds                 Bitrate                 Bytes           Packets
----            ---             ----            -----           --------                --------------          --------------          -------------   -----
00008.M2TS      4113 (0x1011)   0x1B            AVC                                     5671,900                29 997                  21 267 470 069  115 684 140
00008.M2TS      4352 (0x1100)   0x80            LPCM            eng (English)           5671,900                1 542                   1 093 568 348   6 806 442
00008.M2TS      4353 (0x1101)   0x86            DTS-HD MA       eng (English)           5671,900                2 918                   2 068 632 716   12 154 824
00008.M2TS      4608 (0x1200)   0x90            PGS             eng (English)           5671,900                9                       6 331 812       36 517
00008.M2TS      4609 (0x1201)   0x90            PGS             deu (German)            5671,900                9                       6 428 329       37 222
00008.M2TS      4610 (0x1202)   0x90            PGS             spa (Spanish)           5671,900                10                      7 029 745       40 508
00008.M2TS      4611 (0x1203)   0x90            PGS             fra (French)            5671,900                9                       6 416 329       37 162
00008.M2TS      4612 (0x1204)   0x90            PGS             ita (Italian)           5671,900                9                       6 204 964       36 027
00008.M2TS      4613 (0x1205)   0x90            PGS             nld (Dutch)             5671,900                9                       6 054 893       35 203
00008.M2TS      4614 (0x1206)   0x90            PGS             por (Portuguese)        5671,900                10                      6 985 043       40 275
QUICK SUMMARY:
Disc Title: AEROSMITH_ROCK_FOR_THE_RISING_SUN_v99Disc Size: 29 793 821 457 bytesProtection: AACSBD-Java: NoPlaylist: 00005.MPLSSize: 25 938 886 656 bytesLength: 1:34:32.033Total Bitrate: 36,58 MbpsVideo: MPEG-4 AVC Video / 29996 kbps / 1080i / 29,970 fps / 16:9 / High Profile 4.1Audio: English / LPCM Audio / 2.0 / 48 kHz / 1536 kbps / 16-bitAudio: English / DTS-HD Master Audio / 5.1 / 48 kHz / 2918 kbps / 16-bit (DTS Core: 5.1 / 48 kHz / 1509 kbps / 16-bit)Subtitle: English / 8,931 kbpsSubtitle: German / 9,067 kbpsSubtitle: Spanish / 9,915 kbpsSubtitle: French / 9,050 kbpsSubtitle: Italian / 8,752 kbpsSubtitle: Dutch / 8,540 kbpsSubtitle: Portuguese / 9,852 kbps
********************PLAYLIST: 00007.MPLS********************
Код:
Total   Video
Title                                                           Codec   Length  Movie Size      Disc Size       Bitrate Bitrate Main Audio Track                          Secondary Audio Track
-----                                                           ------  ------- --------------  --------------  ------- ------- ------------------                        ---------------------
00007.MPLS                                                      AVC     0:06:47 1 869 078 528   29 793 821 457  36,70   30,00   LPCM 2.0 1536Kbps (48kHz/16-bit)          DTS-HD Master 5.1 3121Kbps (48kHz/16-bit)
Код:
DISC INFO:
Disc Title:     AEROSMITH_ROCK_FOR_THE_RISING_SUN_v99
Disc Size:      29 793 821 457 bytes
Protection:     AACS
BD-Java:        No
BDInfo:         0.5.8
PLAYLIST REPORT:
Name:                   00007.MPLS
Length:                 0:06:47.407 (h:m:s.ms)
Size:                   1 869 078 528 bytes
Total Bitrate:          36,70 Mbps
VIDEO:
Codec                   Bitrate             Description
-----                   -------             -----------
MPEG-4 AVC Video        29996 kbps          1080i / 29,970 fps / 16:9 / High Profile 4.1
AUDIO:
Codec                           Language        Bitrate         Description
-----                           --------        -------         -----------
LPCM Audio                      English         1536 kbps       2.0 / 48 kHz / 1536 kbps / 16-bit
DTS-HD Master Audio             English         3121 kbps       5.1 / 48 kHz / 3121 kbps / 16-bit (DTS Core: 5.1 / 48 kHz / 1509 kbps / 16-bit)
FILES:
Name            Time In         Length          Size            Total Bitrate
----            -------         ------          ----            -------------
00010.M2TS      0:00:00.000     0:06:47.407     1 869 078 528   36 702
CHAPTERS:
Number          Time In         Length          Avg Video Rate  Max 1-Sec Rate  Max 1-Sec Time  Max 5-Sec Rate  Max 5-Sec Time  Max 10Sec Rate  Max 10Sec Time  Avg Frame Size  Max Frame Size  Max Frame Time
------          -------         ------          --------------  --------------  --------------  --------------  --------------  --------------  --------------  --------------  --------------  --------------
1               0:00:00.000     0:06:47.407     29 996 kbps     35 521 kbps     00:05:51.551    33 374 kbps     00:05:47.547    33 040 kbps     00:05:42.575    125 107 bytes   326 363 bytes   00:00:07.874
STREAM DIAGNOSTICS:
File            PID             Type            Codec           Language                Seconds                 Bitrate                 Bytes           Packets
----            ---             ----            -----           --------                --------------          --------------          -------------   -----
00010.M2TS      4113 (0x1011)   0x1B            AVC                                     407,274                 30 006                  1 527 557 666   8 309 025
00010.M2TS      4352 (0x1100)   0x80            LPCM            eng (English)           407,274                 1 543                   78 548 648      488 892
00010.M2TS      4353 (0x1101)   0x86            DTS-HD MA       eng (English)           407,274                 3 122                   158 949 160     923 189
QUICK SUMMARY:
Disc Title: AEROSMITH_ROCK_FOR_THE_RISING_SUN_v99Disc Size: 29 793 821 457 bytesProtection: AACSBD-Java: NoPlaylist: 00007.MPLSSize: 1 869 078 528 bytesLength: 0:06:47.407Total Bitrate: 36,70 MbpsVideo: MPEG-4 AVC Video / 29996 kbps / 1080i / 29,970 fps / 16:9 / High Profile 4.1Audio: English / LPCM Audio / 2.0 / 48 kHz / 1536 kbps / 16-bitAudio: English / DTS-HD Master Audio / 5.1 / 48 kHz / 3121 kbps / 16-bit (DTS Core: 5.1 / 48 kHz / 1509 kbps / 16-bit)
********************PLAYLIST: 00006.MPLS********************
Код:
Total   Video
Title                                                           Codec   Length  Movie Size      Disc Size       Bitrate Bitrate Main Audio Track                          Secondary Audio Track
-----                                                           ------  ------- --------------  --------------  ------- ------- ------------------                        ---------------------
00006.MPLS                                                      AVC     0:03:32 977 135 616     29 793 821 457  36,84   29,99   LPCM 2.0 1536Kbps (48kHz/16-bit)          DTS-HD Master 5.1 3237Kbps (48kHz/16-bit)
Код:
DISC INFO:
Disc Title:     AEROSMITH_ROCK_FOR_THE_RISING_SUN_v99
Disc Size:      29 793 821 457 bytes
Protection:     AACS
BD-Java:        No
BDInfo:         0.5.8
PLAYLIST REPORT:
Name:                   00006.MPLS
Length:                 0:03:32.212 (h:m:s.ms)
Size:                   977 135 616 bytes
Total Bitrate:          36,84 Mbps
VIDEO:
Codec                   Bitrate             Description
-----                   -------             -----------
MPEG-4 AVC Video        29993 kbps          1080i / 29,970 fps / 16:9 / High Profile 4.1
AUDIO:
Codec                           Language        Bitrate         Description
-----                           --------        -------         -----------
LPCM Audio                      English         1536 kbps       2.0 / 48 kHz / 1536 kbps / 16-bit
DTS-HD Master Audio             English         3237 kbps       5.1 / 48 kHz / 3237 kbps / 16-bit (DTS Core: 5.1 / 48 kHz / 1509 kbps / 16-bit)
FILES:
Name            Time In         Length          Size            Total Bitrate
----            -------         ------          ----            -------------
00009.M2TS      0:00:00.000     0:03:32.212     977 135 616     36 836
CHAPTERS:
Number          Time In         Length          Avg Video Rate  Max 1-Sec Rate  Max 1-Sec Time  Max 5-Sec Rate  Max 5-Sec Time  Max 10Sec Rate  Max 10Sec Time  Avg Frame Size  Max Frame Size  Max Frame Time
------          -------         ------          --------------  --------------  --------------  --------------  --------------  --------------  --------------  --------------  --------------  --------------
1               0:00:00.000     0:03:32.212     29 993 kbps     36 072 kbps     00:03:27.974    33 399 kbps     00:03:23.937    32 881 kbps     00:01:33.326    125 094 bytes   267 825 bytes   00:02:20.940
STREAM DIAGNOSTICS:
File            PID             Type            Codec           Language                Seconds                 Bitrate                 Bytes           Packets
----            ---             ----            -----           --------                --------------          --------------          -------------   -----
00009.M2TS      4113 (0x1011)   0x1B            AVC                                     212,079                 30 012                  795 599 674     4 327 514
00009.M2TS      4352 (0x1100)   0x80            LPCM            eng (English)           212,079                 1 543                   40 915 052      254 658
00009.M2TS      4353 (0x1101)   0x86            DTS-HD MA       eng (English)           212,079                 3 239                   85 856 360      499 914
QUICK SUMMARY:
Disc Title: AEROSMITH_ROCK_FOR_THE_RISING_SUN_v99Disc Size: 29 793 821 457 bytesProtection: AACSBD-Java: NoPlaylist: 00006.MPLSSize: 977 135 616 bytesLength: 0:03:32.212Total Bitrate: 36,84 MbpsVideo: MPEG-4 AVC Video / 29993 kbps / 1080i / 29,970 fps / 16:9 / High Profile 4.1Audio: English / LPCM Audio / 2.0 / 48 kHz / 1536 kbps / 16-bitAudio: English / DTS-HD Master Audio / 5.1 / 48 kHz / 3237 kbps / 16-bit (DTS Core: 5.1 / 48 kHz / 1509 kbps / 16-bit)
-
Other forum [Profile] [PM]
Display posts from previous:    
Reply to topic

The time now is: Today 17:21

All times are GMT + 3 Hours



You cannot post new topics in this forum
You cannot reply to topics in this forum
You cannot edit your posts in this forum
You cannot delete your posts in this forum
You cannot vote in polls in this forum
You cannot attach files in this forum
You cannot download files in this forum