Today is a free download without charge Download

Sully Erna - Avalon Live [2012, Hard Rock, Experimental, BDRip 1080p]

Reply to topic
 
Author
Message

Omen ®

Longevity: 8 years 3 months

Posts: 181087

Торрент-статистика

Post 06-Aug-2013 00:18

[Quote]

Sully Erna - Avalon Live
Жанр: Acoustic Rock, Tribal Music, Native American Music, Symphonic Tribal Rock, Piano Rock, Experimental
Продолжительность: 1:27:16
Год выпуска: 2012-Состав:
Sully Erna - вокал, пианино, гитара, перкуссия.
Lisa Guyer - вокал.
David Stefanelli - ударные, перкуссия.
Niall Gregory - ударные, перкуссия.
Chris Decato - клавишные, миди, вокал.
Tim Theriault - гитары, вокал.
Irina Chirkova - виолончель.
Chris Lester - гитары, бас, мандолин.-Треклист:
1. Avalon
2. Sinner's Prayer
3. Broken Road
4. The Departed
5. Lester's Ditty
6. My Light
7. Cast Out
8. 3 Times Fold
9. Until Then... (Featuring Irina Chirkova)
10. Midnight
11. The Rise
12. Eyes Of A Child
13. 7 Years
14. Serenity
15. The Chain
16. Hey Jude-Доп информация:
Спасибо GODSMACK_FOREVER за предоставленный блю-рей.-Качество: BDRip 1080p
Контейнер: MKV
Видео кодек: H.264
Видео: H.264, 1920x1080, 13.9 Mbps, 23.976 fps
Аудио: Аудио: DTS, 1 509 Kbps, 48.0 KHz, 5.1
Аудио 2: Аудио 2: AC3, 448 Kbps, 48.0 KHz, 2.0

Отчёт MediaInfo / BDInfo

GeneralUnique ID : 242493586712965385503261545815875369346 (0xB66E90E531E370BA8C66F2D800D9B982)Complete name : SullyErna_Avalon.1080p.mkvFormat : MatroskaFormat version : Version 4 / Version 2File size : 9.90 GiBDuration : 1h 27mnOverall bit rate mode : VariableOverall bit rate : 16.2 MbpsEncoded date : UTC 2013-08-05 03:45:36Writing application : mkvmerge v6.1.0 ('Old Devil') built on Mar 4 2013 09:10:42Writing library : libebml v1.3.0 + libmatroska v1.4.0
VideoID : 1Format : AVCFormat/Info : Advanced Video CodecFormat profile : [email protected] settings, CABAC : YesFormat settings, ReFrames : 4 framesCodec ID : V_MPEG4/ISO/AVCDuration : 1h 27mnBit rate : 13.9 MbpsNominal bit rate : 11.4 MbpsWidth : 1 920 pixelsHeight : 1 080 pixelsDisplay aspect ratio : 16:9Frame rate mode : ConstantFrame rate : 23.976 fpsColor space : YUVChroma subsampling : 4:2:0Bit depth : 8 bitsScan type : ProgressiveBits/(Pixel*Frame) : 0.280Stream size : 8.48 GiB (86%)Writing library : x264 core 130 r2273 b3065e6Encoding settings : cabac=1 / ref=4 / deblock=1:-1:-1 / analyse=0x3:0x133 / me=umh / subme=10 / psy=1 / psy_rd=1.00:0.00 / mixed_ref=1 / me_range=24 / chroma_me=1 / trellis=2 / 8x8dct=1 / cqm=0 / deadzone=21,11 / fast_pskip=1 / chroma_qp_offset=-2 / threads=12 / lookahead_threads=2 / sliced_threads=0 / nr=0 / decimate=1 / interlaced=0 / bluray_compat=0 / constrained_intra=0 / bframes=8 / b_pyramid=2 / b_adapt=2 / b_bias=0 / direct=3 / weightb=1 / open_gop=0 / weightp=2 / keyint=250 / keyint_min=23 / scenecut=40 / intra_refresh=0 / rc_lookahead=60 / rc=2pass / mbtree=1 / bitrate=11352 / ratetol=1.0 / qcomp=0.70 / qpmin=0 / qpmax=69 / qpstep=4 / cplxblur=20.0 / qblur=0.5 / ip_ratio=1.40 / aq=1:0.60Default : YesForced : No
Audio #1ID : 2Format : AC-3Format/Info : Audio Coding 3Mode extension : CM (complete main)Format settings, Endianness : BigCodec ID : A_AC3Duration : 1h 27mnBit rate mode : ConstantBit rate : 448 KbpsChannel(s) : 2 channelsChannel positions : Front: L RSampling rate : 48.0 KHzBit depth : 16 bitsCompression mode : LossyStream size : 280 MiB (3%)Default : YesForced : No
Audio #2ID : 3Format : DTSFormat/Info : Digital Theater SystemsCodec ID : A_DTSDuration : 1h 27mnBit rate mode : ConstantBit rate : 1 510 KbpsChannel(s) : 6 channelsChannel positions : Front: L C R, Side: L R, LFESampling rate : 48.0 KHzBit depth : 24 bitsCompression mode : LossyStream size : 943 MiB (11%)Language : EnglishDefault : NoForced : No

Bitrate Viewer

Other forum [Profile] [PM]
Display posts from previous:    
Reply to topic

The time now is: Today 12:14

All times are GMT + 3 Hours



You cannot post new topics in this forum
You cannot reply to topics in this forum
You cannot edit your posts in this forum
You cannot delete your posts in this forum
You cannot vote in polls in this forum
You cannot attach files in this forum
You cannot download files in this forum