Today is a free download without charge Download

Мамочка-маньячка-убийца / Serial Mom (Джон Уотерс) (Триллер, Комедия 1994) BDRip

Reply to topic
 
Author
Message

Omen ®

Longevity: 8 years 11 months

Posts: 181086

Торрент-статистика

Post 04-Aug-2013 21:12

[Quote]

Мамочка-маньячка-убийца
Serial Mom

«She's a fabulous, loving, caring mother, who er... ...happens to be a serial killer!»
- Год выпуска: 1994
Жанр: Триллер, Комедия
Описание фильма:
Типичная американская семья - как в рекламе. Большой дом в Балтиморе. Мамочка-домохозяйка: милая, любящая и настолько безупречная, что того и гляди запоет. Да, вот еще: когда детишки уходят в школу а муж на работу, она… убивает. С выбором очередной жертвы проблем нет: достаточно отдать предпочтение другой девочке поприятней чем ее дочурка, накричать на ее сына, надеть белые тапочки в День труда, не перемотать пленку на начало видеокассеты и ваши дни сочтены. И уж будьте уверены, разделается она с вами самым изощренным способом.
Режиссер: Джон Уотерс
Актеры: Кэтлин Тёрнер, Сэм Уотерстон, Рики Лейк, Мэттью Лиллард, Скотт Морган, Уолт Макферсон, Джастин Уэйлин, Патриция Даннок, Лонни Хорси, Минк Стоул..
Качество видео: BDRip (источник: BDRemux / 1080p)
Продолжительность: 01:33:46
Язык субтитров: Русские, Английские
Вид субтитров: Отдельным файлом
Перевод: Профессиональный, многоголосый, закадровый (НТВ+)
/ Профессиональный, двуголосый, закадровый (студия NLS)
Видео: XviD build 65, 704x384 (1.83:1), 1819 kbps avg, 0.28 bit/pixel
Аудио 1: AC3 Dolby Digital, 2/0 (L,R) ch, 192 kbps avg - многоголосый
Аудио 2: AC3 Dolby Digital, 2/0 (L,R) ch, 192 kbps avg - двуголосый
Аудио 3: AC3, 3/2 (L,C,R,l,r)+LFE ch, 384 kbps - английский, отдельно

MediaInfo:

Общее
Полное имя : C:\Users\Torrents\Serial Mom\Mamochka_manyachka_ubijca_BDRip\Mamochka.manyachka.ubijca.1994.BDRip.avi
Формат : AVI
Формат/Информация : Audio Video Interleave
Размер файла : 1,45 Гбайт
Продолжительность : 1 ч. 33 м.
Общий поток : 2217 Кбит/сек
Название фильма : Мамочка-маньячка-убийца / Serial Mom (1994) BDRip
Режиссёр : sociolog_melvas
Жанр : триллер, комедия, криминал
Программа кодирования : VirtualDubMod 1.5.10.2 (build 2540/release)
Видео
Идентификатор : 0
Формат : MPEG-4 Visual
Профиль формата : Advanced [email protected]
Параметр BVOP формата : 1
Параметр QPel формата : Нет
Параметр GMC формата : Без точки перехода
Параметр матрицы формата : Выборочная
Идентификатор кодека : XVID
Идентификатор кодека/Подсказка : XviD
Продолжительность : 1 ч. 33 м.
Битрейт : 1819 Кбит/сек
Ширина : 704 пикселя
Высота : 384 пикселя
Соотношение сторон : 1,85:1
Частота кадров : 23,976 кадра/сек
Цветовое пространство : YUV
Субдискретизация насыщенности : 4:2:0
Битовая глубина : 8 бит
Тип развёртки : Прогрессивная
Метод сжатия : С потерями
Бит/(Пиксели*Кадры) : 0.281
Размер потока : 1,19 Гбайт (82%)
Библиотека кодирования : XviD 65
Аудио #1
Идентификатор : 1
Формат : AC-3
Формат/Информация : Audio Coding 3
Расширение режима : CM (complete main)
Параметр Endianness формата : Big
Идентификатор кодека : 2000
Продолжительность : 1 ч. 33 м.
Вид битрейта : Постоянный
Битрейт : 192 Кбит/сек
Каналы : 2 канала
Расположение каналов : Front: L R
Частота : 48,0 КГц
Битовая глубина : 16 бит
Метод сжатия : С потерями
Размер потока : 129 Мбайт (9%)
Выравнивание : Разделение по промежуткам
Продолжительность промежутка : 42 мс. (1,00 видеокадр)
Время предзагрузки промежутка : 500 мс.
Аудио #2
Идентификатор : 2
Формат : AC-3
Формат/Информация : Audio Coding 3
Расширение режима : CM (complete main)
Параметр Endianness формата : Big
Идентификатор кодека : 2000
Продолжительность : 1 ч. 33 м.
Вид битрейта : Постоянный
Битрейт : 192 Кбит/сек
Каналы : 2 канала
Расположение каналов : Front: L R
Частота : 48,0 КГц
Битовая глубина : 16 бит
Метод сжатия : С потерями
Размер потока : 129 Мбайт (9%)
Выравнивание : Разделение по промежуткам
Продолжительность промежутка : 42 мс. (1,00 видеокадр)
Время предзагрузки промежутка : 500 мс.
         
       
Other forum [Profile] [PM]
Display posts from previous:    
Reply to topic

The time now is: Today 11:41

All times are GMT + 3 Hours



You cannot post new topics in this forum
You cannot reply to topics in this forum
You cannot edit your posts in this forum
You cannot delete your posts in this forum
You cannot vote in polls in this forum
You cannot attach files in this forum
You cannot download files in this forum