Today is a free download without charge Download

Doro-Live Wacken 2013 [2013, Heavy Metal, HDTV 720p]

Reply to topic
 
Author
Message

Omen ®

Longevity: 8 years 4 months

Posts: 181087

Торрент-статистика

Post 04-Aug-2013 17:50

[Quote]

Doro-Live Wacken 2013
Жанр: Heavy Metal
Продолжительность: 00:56:58
Год выпуска: 2013
Описание:
Burning the Witches
Rock till Death
East Meets West
We Are The Metalheads
Raise Your Fist in the Air
Fur Immer
Revenge
Metal Tango
Breaking the Law
All we Are
Earthshaker Rock
Доп. информация: Все благодарности abbath2008
Качество: HDTV 720p
Контейнер: TS
Видео кодек: H.264
Аудио кодек: AC3
Видео: AVC; 1280 x 720; 12.3 Mbps; 50.000 fps
Аудио: AC-3; 448 Kbps; 48.0 KHz; 2 channels
Аудио 2: MPEG -1; 256 Kbps; 48.0 KHz; 2 channels

Отчёт MediaInfo / BDInfo

GeneralID : 1011 (0x3F3)Complete name : D:\Doro - Live Wacken 2013.tsFormat : MPEG-TSFile size : 5.71 GiBDuration : 56mn 58sOverall bit rate mode : VariableOverall bit rate : 14.3 Mbps
VideoID : 6410 (0x190A)Menu ID : 11140 (0x2B84)Format : AVCFormat/Info : Advanced Video CodecFormat profile : [email protected] settings, CABAC : YesFormat settings, ReFrames : 6 framesCodec ID : 27Duration : 56mn 57sBit rate : 12.5 MbpsWidth : 1 280 pixelsHeight : 720 pixelsDisplay aspect ratio : 16:9Frame rate : 50.000 fpsColor space : YUVChroma subsampling : 4:2:0Bit depth : 8 bitsScan type : ProgressiveBits/(Pixel*Frame) : 0.272Stream size : 4.99 GiB (87%)Color primaries : BT.709Transfer characteristics : BT.709Matrix coefficients : BT.709
Audio #1ID : 6420 (0x1914)Menu ID : 11140 (0x2B84)Format : MPEG AudioFormat version : Version 1Format profile : Layer 2Codec ID : 3Duration : 56mn 58sBit rate mode : ConstantBit rate : 256 KbpsChannel(s) : 2 channelsSampling rate : 48.0 KHzCompression mode : LossyDelay relative to video : -711msStream size : 104 MiB (2%)Language : German
Audio #2ID : 6421 (0x1915)Menu ID : 11140 (0x2B84)Format : MPEG AudioFormat version : Version 1Format profile : Layer 2Codec ID : 3Duration : 56mn 58sBit rate mode : ConstantBit rate : 192 KbpsChannel(s) : 2 channelsSampling rate : 48.0 KHzCompression mode : LossyDelay relative to video : -671msStream size : 78.2 MiB (1%)
Audio #3ID : 6422 (0x1916)Menu ID : 11140 (0x2B84)Format : AC-3Format/Info : Audio Coding 3Mode extension : CM (complete main)Format settings, Endianness : BigCodec ID : 6Duration : 56mn 58sBit rate mode : ConstantBit rate : 448 KbpsChannel(s) : 2 channelsChannel positions : Front: L RSampling rate : 48.0 KHzBit depth : 16 bitsCompression mode : LossyDelay relative to video : -732msStream size : 183 MiB (3%)Language : German
Audio #4ID : 6423 (0x1917)Menu ID : 11140 (0x2B84)Format : MPEG AudioFormat version : Version 1Format profile : Layer 2Codec ID : 3Duration : 56mn 58sBit rate mode : ConstantBit rate : 192 KbpsChannel(s) : 2 channelsSampling rate : 48.0 KHzCompression mode : LossyDelay relative to video : -691msStream size : 78.2 MiB (1%)Language : Multiple languages
TextID : 6430 (0x191E)-100Menu ID : 11140 (0x2B84)Format : TeletextLanguage : German
MenuID : 6400 (0x1900)Menu ID : 11140 (0x2B84)Duration : 56mn 58sList : 6410 (0x190A) (AVC) / 6420 (0x1914) (MPEG Audio, German) / 6421 (0x1915) (MPEG Audio) / 6423 (0x1917) (MPEG Audio, Multiple languages) / 6422 (0x1916) (AC-3, German) / 6430 (0x191E) () / 6170 (0x181A) ()Language : / German / / Multiple languages / German

Скриншоты

Other forum [Profile] [PM]
Display posts from previous:    
Reply to topic

The time now is: Today 19:16

All times are GMT + 3 Hours



You cannot post new topics in this forum
You cannot reply to topics in this forum
You cannot edit your posts in this forum
You cannot delete your posts in this forum
You cannot vote in polls in this forum
You cannot attach files in this forum
You cannot download files in this forum