Today is a free download without charge Download

Red Hot Chili Peppers - Bizarre Festival 1999 [2013, Alternative Rock, HDTV 720p]

Reply to topic
 
Author
Message

Omen ®

Longevity: 8 years 4 months

Posts: 181087

Торрент-статистика

Post 04-Aug-2013 17:50

[Quote]

Red Hot Chili Peppers - Bizarre Festival 1999
Жанр: Alternative Rock
Продолжительность: 01:09:21
Год выпуска: 2013
Описание: Концертное выступление рок-бэнда Red Hot Chili Peppers на ''Bizarre Festival'' в Butzweiler Hof, Köln, Germany в 1999.
Показ в рамках программы Rockpalast.
Доп. информация: Собственная запись со спутникового канала Einsfestival 2013 aug03
Треклист: 01. Around The World
02. Give It Away
03. Scar Tissue
04. Suck My Kiss
05. Soul To Squeeze
06. I Like Dirt
07. If You Have To Ask
08. Organic Anti Beat Box
09. My Lovely Man
10. Right On Time
11. Under The Bridge
12. Never Mind
Качество: HDTV 720p
Контейнер: TS
Видео кодек: H.264
Аудио кодек: AC3
Видео: Mpeg4 AVC, 1280x720, 16:9, 6995 kbps, 50 fps Progressive
Аудио: AC3, 448 kbps, 48 kHz, stereo
Аудио 2: MP2, 192 kbps, 48 kHz, stereo

Отчёт MediaInfo / BDInfo

GeneralID : 1 (0x1)Complete name : D:\Downloads\Red Hot Chili Peppers - Bizarre Festival 1999.tsFormat : MPEG-TSFile size : 3.89 GiBDuration : 1h 9mnOverall bit rate mode : VariableOverall bit rate : 8 038 Kbps
VideoID : 1601 (0x641)Menu ID : 1 (0x1)Format : AVCFormat/Info : Advanced Video CodecFormat profile : [email protected] settings, CABAC : YesFormat settings, ReFrames : 4 framesFormat settings, GOP : M=8, N=32Codec ID : 27Duration : 1h 9mnBit rate : 6 994 KbpsWidth : 1 280 pixelsHeight : 720 pixelsDisplay aspect ratio : 16:9Frame rate : 50.000 fpsColor space : YUVChroma subsampling : 4:2:0Bit depth : 8 bitsScan type : ProgressiveBits/(Pixel*Frame) : 0.152Stream size : 3.39 GiB (87%)
Audio #1ID : 1602 (0x642)Menu ID : 1 (0x1)Format : MPEG AudioFormat version : Version 1Format profile : Layer 2Codec ID : 3Duration : 1h 9mnBit rate mode : ConstantBit rate : 192 KbpsChannel(s) : 2 channelsSampling rate : 48.0 KHzCompression mode : LossyStream size : 95.3 MiB (2%)Language : German
Audio #2ID : 1606 (0x646)Menu ID : 1 (0x1)Format : AC-3Format/Info : Audio Coding 3Mode extension : CM (complete main)Format settings, Endianness : BigCodec ID : 6Duration : 1h 9mnBit rate mode : ConstantBit rate : 448 KbpsChannel(s) : 2 channelsChannel positions : Front: L RSampling rate : 48.0 KHzBit depth : 16 bitsCompression mode : LossyStream size : 222 MiB (6%)Language : German
TextID : 1604 (0x644)-100Menu ID : 1 (0x1)Format : TeletextLanguage : German
MenuID : 1600 (0x640)Menu ID : 1 (0x1)Duration : 1h 9mnList : 1601 (0x641) (AVC) / 1602 (0x642) (MPEG Audio, German) / 1606 (0x646) (AC-3, German) / 1604 (0x644) ()Language : / German / German

Скриншоты

Other forum [Profile] [PM]
Display posts from previous:    
Reply to topic

The time now is: Today 04:28

All times are GMT + 3 Hours



You cannot post new topics in this forum
You cannot reply to topics in this forum
You cannot edit your posts in this forum
You cannot delete your posts in this forum
You cannot vote in polls in this forum
You cannot attach files in this forum
You cannot download files in this forum