Today is a free download without charge Download

Deep Purple - Live Wacken 2013 [2013, Hard Rock, HDTV 720p]

Reply to topic
 
Author
Message

Omen ®

Longevity: 8 years 4 months

Posts: 181087

Торрент-статистика

Post 04-Aug-2013 05:41

[Quote]

Deep Purple - Live Wacken 2013
Жанр: Hard Rock
Продолжительность: 00:48:41
Год выпуска: 2013
Треклист:
01. Strange Kind of Women
02. Contact Lost
03. Above And Beyond
04. No One Came
05. Perfect Strangers
06. Smoke On The Water
07. Hush
08. Black Night
Качество: HDTV 720p
Контейнер: TS
Видео кодек: H.264
Аудио кодек: AC3
Видео: AVC; 1280 x 720; 12.3 Mbps; 50.000 fps
Аудио: AC-3; 448 Kbps; 48.0 KHz; 2 channels
Аудио 2: MPEG -1; 256 Kbps; 48.0 KHz; 2 channels

Отчёт MediaInfo / BDInfo

ОбщееИдентификатор : 1011 (0x3F3)Полное имя : D:\Deep Purple - Live Wacken 2013.tsФормат : MPEG-TSРазмер файла : 4,79 ГбайтПродолжительность : 48 м.Режим общего битрейта : ПеременныйОбщий поток : 14,1 Мбит/сек
ВидеоИдентификатор : 6410 (0x190A)Идентификатор меню : 11140 (0x2B84)Формат : AVCФормат/Информация : Advanced Video CodecПрофиль формата : [email protected]Параметр CABAC формата : ДаПараметр ReFrames формата : 6 кадровИдентификатор кодека : 27Продолжительность : 48 м.Битрейт : 12,3 Мбит/секШирина : 1280 пикселейВысота : 720 пикселейСоотношение сторон : 16:9Частота кадров : 50,000 кадров/секЦветовое пространство : YUVСубдискретизация насыщенности : 4:2:0Битовая глубина : 8 битТип развёртки : ПрогрессивнаяБит/(Пиксели*Кадры) : 0.266Размер потока : 4,17 Гбайт (87%)Основные цвета : BT.709Характеристики трансфера : BT.709Коэффициенты матрицы : BT.709
Аудио #1Идентификатор : 6420 (0x1914)Идентификатор меню : 11140 (0x2B84)Формат : MPEG AudioВерсия формата : Version 1Профиль формата : Layer 2Идентификатор кодека : 3Продолжительность : 48 м.Вид битрейта : ПостоянныйБитрейт : 256 Кбит/секКаналы : 2 каналаЧастота : 48,0 КГцМетод сжатия : С потерямиЗадержка видео : -531 мс.Размер потока : 89,1 Мбайт (2%)Язык : German
Аудио #2Идентификатор : 6421 (0x1915)Идентификатор меню : 11140 (0x2B84)Формат : MPEG AudioВерсия формата : Version 1Профиль формата : Layer 2Идентификатор кодека : 3Продолжительность : 48 м.Вид битрейта : ПостоянныйБитрейт : 192 Кбит/секКаналы : 2 каналаЧастота : 48,0 КГцМетод сжатия : С потерямиЗадержка видео : -491 мс.Размер потока : 66,8 Мбайт (1%)
Аудио #3Идентификатор : 6422 (0x1916)Идентификатор меню : 11140 (0x2B84)Формат : AC-3Формат/Информация : Audio Coding 3Расширение режима : CM (complete main)Параметр Endianness формата : BigИдентификатор кодека : 6Продолжительность : 48 м.Вид битрейта : ПостоянныйБитрейт : 448 Кбит/секКаналы : 2 каналаРасположение каналов : Front: L RЧастота : 48,0 КГцБитовая глубина : 16 битМетод сжатия : С потерямиЗадержка видео : -552 мс.Размер потока : 156 Мбайт (3%)Язык : German
Аудио #4Идентификатор : 6423 (0x1917)Идентификатор меню : 11140 (0x2B84)Формат : MPEG AudioВерсия формата : Version 1Профиль формата : Layer 2Идентификатор кодека : 3Продолжительность : 48 м.Вид битрейта : ПостоянныйБитрейт : 192 Кбит/секКаналы : 2 каналаЧастота : 48,0 КГцМетод сжатия : С потерямиЗадержка видео : -511 мс.Размер потока : 66,8 Мбайт (1%)Язык : Несколько языков
ТекстИдентификатор : 6430 (0x191E)-100Идентификатор меню : 11140 (0x2B84)Формат : TeletextЯзык : German
МенюИдентификатор : 6400 (0x1900)Идентификатор меню : 11140 (0x2B84)Продолжительность : 48 м.Список : 6410 (0x190A) (AVC) / 6420 (0x1914) (MPEG Audio, German) / 6421 (0x1915) (MPEG Audio) / 6423 (0x1917) (MPEG Audio, Несколько языков) / 6422 (0x1916) (AC-3, German) / 6430 (0x191E) () / 6170 (0x181A) ()Язык : / German / / Несколько языков / German

Скриншоты


Other forum [Profile] [PM]
Similar theme
Forum Topic Author Torrent Replies Last Post
./templates/default/images/folder_dl.gif Rock (Hard Rock) Deep Purple - Whoosh! (Limited Edition) - 2020 [MP3, tracks, 320 kbps] sergej644
1 | 0

0 | 765

1

2020-08-27 19:39
sergej644 Latest
Display posts from previous:    
Reply to topic

The time now is: Today 21:05

All times are GMT + 3 Hours



You cannot post new topics in this forum
You cannot reply to topics in this forum
You cannot edit your posts in this forum
You cannot delete your posts in this forum
You cannot vote in polls in this forum
You cannot attach files in this forum
You cannot download files in this forum