Today is a free download without charge Download

Alice Cooper - Live Wacken 2013 [2013, Horror Rock, HDTV 720p]

Reply to topic
 
Author
Message

Omen ®

Longevity: 8 years 4 months

Posts: 181087

Торрент-статистика

Post 04-Aug-2013 05:41

[Quote]

Alice Cooper - Live Wacken 2013 Жанр: Horror Rock
Продолжительность: 00:20:12
Год выпуска: 2013
Описание:
Треклист:
01. Hello Hooray
02. House Of Fire.
03. No More Mr. Nice guy
04. Under My Wheels
05. I'll Bite Your Face Off
06. Billion Dollar baby
Качество: HDTV 720p
Контейнер: TS
Видео кодек: H.264
Аудио кодек: AC3
Видео: AVC; 1280 x 720; 13.0 Mbps; 50.000 fps
Аудио: AC-3; 448 Kbps; 48.0 KHz; 2 channels
Аудио 2: MPEG -1; 256 Kbps; 48.0 KHz; 2 channels

Отчёт MediaInfo / BDInfo

GeneralИдентификатор : 1011 (0x3F3)Полное имя : D:\Alice Cooper- Live Wacken 2013.tsФормат : MPEG-TSРазмер файла : 2.09 GiBПродолжительность : 20mn 11sРежим общего битрейта : VariableОбщий поток : 14.8 Mbps
VideoИдентификатор : 6410 (0x190A)Идентификатор меню : 11140 (0x2B84)Формат : AVCФормат/Информация : Advanced Video CodecПрофиль формата : [email protected]Параметр CABAC формата : YesПараметр ReFrames формата : 6 framesПараметр GOP формата : M=4, N=33Идентификатор кодека : 27Продолжительность : 20mn 11sБитрейт : 13.0 MbpsШирина : 1 280 pixelsВысота : 720 pixelsСоотношение сторон : 16:9Частота кадров : 50.000 fpsЦветовое пространство : YUVСубдискретизация насыщенности : 4:2:0Битовая глубина : 8 bitsТип развёртки : ProgressiveБит/(Пиксели*Кадры) : 0.282Размер потока : 1.83 GiB (88%)Color primaries : BT.709Transfer characteristics : BT.709Matrix coefficients : BT.709
Audio #1Идентификатор : 6420 (0x1914)Идентификатор меню : 11140 (0x2B84)Формат : MPEG AudioВерсия формата : Version 1Профиль формата : Layer 2Идентификатор кодека : 3Продолжительность : 20mn 11sВид битрейта : ConstantБитрейт : 256 KbpsКаналы : 2 channelsЧастота : 48.0 KHzМетод сжатия : LossyЗадержка видео : -371msРазмер потока : 37.0 MiB (2%)Язык : German
Audio #2Идентификатор : 6421 (0x1915)Идентификатор меню : 11140 (0x2B84)Формат : MPEG AudioВерсия формата : Version 1Профиль формата : Layer 2Идентификатор кодека : 3Продолжительность : 20mn 11sВид битрейта : ConstantБитрейт : 192 KbpsКаналы : 2 channelsЧастота : 48.0 KHzМетод сжатия : LossyЗадержка видео : -331msРазмер потока : 27.7 MiB (1%)
Audio #3Идентификатор : 6422 (0x1916)Идентификатор меню : 11140 (0x2B84)Формат : AC-3Формат/Информация : Audio Coding 3Расширение режима : CM (complete main)Параметр Endianness формата : BigИдентификатор кодека : 6Продолжительность : 20mn 11sВид битрейта : ConstantБитрейт : 448 KbpsКаналы : 2 channelsРасположение каналов : Front: L RЧастота : 48.0 KHzБитовая глубина : 16 bitsМетод сжатия : LossyЗадержка видео : -432msРазмер потока : 64.7 MiB (3%)Язык : German
Audio #4Идентификатор : 6423 (0x1917)Идентификатор меню : 11140 (0x2B84)Формат : MPEG AudioВерсия формата : Version 1Профиль формата : Layer 2Идентификатор кодека : 3Продолжительность : 20mn 11sВид битрейта : ConstantБитрейт : 192 KbpsКаналы : 2 channelsЧастота : 48.0 KHzМетод сжатия : LossyЗадержка видео : -351msРазмер потока : 27.7 MiB (1%)Язык : Multiple languages
TextИдентификатор : 6430 (0x191E)-100Идентификатор меню : 11140 (0x2B84)Формат : TeletextЯзык : German
MenuИдентификатор : 6400 (0x1900)Идентификатор меню : 11140 (0x2B84)Продолжительность : 20mn 11sСписок : 6410 (0x190A) (AVC) / 6420 (0x1914) (MPEG Audio, German) / 6421 (0x1915) (MPEG Audio) / 6423 (0x1917) (MPEG Audio, Multiple languages) / 6422 (0x1916) (AC-3, German) / 6430 (0x191E) () / 6170 (0x181A) ()Язык : / German / / Multiple languages / German

Скриншоты

Other forum [Profile] [PM]
Display posts from previous:    
Reply to topic

The time now is: Today 13:42

All times are GMT + 3 Hours



You cannot post new topics in this forum
You cannot reply to topics in this forum
You cannot edit your posts in this forum
You cannot delete your posts in this forum
You cannot vote in polls in this forum
You cannot attach files in this forum
You cannot download files in this forum