Today is a free download without charge Download

Печать царя Соломона (Владлен Барбэ) [2012, мультфильм, приключения, WEB-DLRip]

Reply to topic
 
Author
Message

Omen ®

Longevity: 7 years 11 months

Posts: 181087

Торрент-статистика

Post 04-Aug-2013 01:37

[Quote]

Печать царя Соломона Год выпуска: 2012
Страна: Россия
Жанр: мультфильм, приключения
Продолжительность: 01:15:22
Перевод: не требуется
Субтитры: отсутствуют- Режиссёр: Владлен Барбэ- Роли озвучивали: Дмитрий Дюжев, Эдуард Радзюкевич, Владимир Долинский, Александр Головин- Описание: Много веков назад, во времена своего правления, царь Соломон прогневался на могущественного джинна Юсуфа и с помощью колдовства заковал его в глиняный сосуд, скрепив заклятье своим магическим перстнем.
Прошли годы, сменились эпохи, и джинн оказывается на свободе в современной Москве. По невероятному стечению обстоятельств из плена его спасли юный Гекльберри Финн со своим другом, беглым рабом Джимом, силой магии также переместившиеся из Америки XIX века на улицы современного мегаполиса.
Но на этом приключения героев не заканчиваются. Сила перстня столь велика, что сквозь пространство и время Юсуфа преследует древний демон Кишкаш, продолжающий исполнять волю Соломона. Однако, истинная его цель заключается в стремлении обрести могущественный артефакт царя, чтобы погрузить мир в вечную тьму и хаос.
Время решающей битвы стремительно приближается…- - Качество: WEB-DLRip
Формат: AVI
Видео кодек: XviD
Аудио кодек: AC3
Видео: 720x384,(1.88:1), 25 fps, XviD build 50 ~2203 kbps avg, 0.32 bit/pixel
Аудио: 48 kHz, AC3 Dolby Digital, 3/2 (L,C,R,l,r) + LFE ch, ~384 kbps-

MediaInfo

Общее
Полное имя : D:\Im\Печать царя Соломона\Pechat carja Solomona.2012. WEB-DLRip.avi
Формат : AVI
Формат/Информация : Audio Video Interleave
Размер файла : 1,37 Гбайт
Продолжительность : 1 ч. 15 м.
Общий поток : 2598 Кбит/сек
Программа кодирования : VirtualDubMod 1.5.10.3 | www.virtualdub-fr.org || (build 2550/release)
Библиотека кодирования : VirtualDubMod build 2550/release
Видео
Идентификатор : 0
Формат : MPEG-4 Visual
Профиль формата : Advanced [email protected]
Параметр BVOP формата : 2
Параметр QPel формата : Нет
Параметр GMC формата : Без точки перехода
Параметр матрицы формата : Default (MPEG)
Идентификатор кодека : XVID
Идентификатор кодека/Подсказка : XviD
Продолжительность : 1 ч. 15 м.
Битрейт : 2204 Кбит/сек
Ширина : 720 пикселей
Высота : 384 пикселя
Соотношение сторон : 1,875
Частота кадров : 25,000 кадров/сек
Цветовое пространство : YUV
Субдискретизация насыщенности : 4:2:0
Битовая глубина : 8 бит
Тип развёртки : Прогрессивная
Метод сжатия : С потерями
Бит/(Пиксели*Кадры) : 0.319
Размер потока : 1,16 Гбайт (85%)
Библиотека кодирования : XviD 1.2.1 (UTC 2008-12-04)
Аудио
Идентификатор : 1
Формат : AC-3
Формат/Информация : Audio Coding 3
Расширение режима : CM (complete main)
Идентификатор кодека : 2000
Продолжительность : 1 ч. 15 м.
Вид битрейта : Постоянный
Битрейт : 384 Кбит/сек
Каналы : 6 каналов
Расположение каналов : Front: L C R, Side: L R, LFE
Частота : 48,0 КГц
Битовая глубина : 16 бит
Метод сжатия : С потерями
Размер потока : 207 Мбайт (15%)
Выравнивание : Разделение по промежуткам
Продолжительность промежутка : 40 мс. (1,00 видеокадр)
Время предзагрузки промежутка : 500 мс.
Other forum [Profile] [PM]
Display posts from previous:    
Reply to topic

The time now is: Today 18:00

All times are GMT + 3 Hours



You cannot post new topics in this forum
You cannot reply to topics in this forum
You cannot edit your posts in this forum
You cannot delete your posts in this forum
You cannot vote in polls in this forum
You cannot attach files in this forum
You cannot download files in this forum