Today is a free download without charge Download

Discovery: Суперяхты. Серия №1 / Superyachts (2012) SATRip

Reply to topic
 
Author
Message

UndegraundMen ®

Longevity: 7 years 7 months

Posts: 25145

Торрент-статистика

Post 03-Aug-2013 20:39

[Quote]

Discovery: Суперяхты. Серия №1 / Superyachts (2012) SATRip - Режиссер / Телекомпания: Discovery
Русское название: Суперяхты
Оригинальное название: Superyachts
Год выпуска: 2012
Жанр: Документальный, научно-познавательный, природа, география, путешествия, приключения
Выпущено: CША, Discovery Channel
Описание:
Роскошь в построении голландских яхт всегда была основным фактором в инновации, технологии и дизайне. Строительство со столетней историей, традиционными ценностями в строительстве и с внедрением новейших технологий и самого элегантного оборудования – все это создает форму впечатляющей и эксклюзивной серии в этой отрасли, становясь еще одним доказательством ее стремления к совершенству
Режиссёр: Jum Festen
Текст читал: Владислав Букин
Озвучено: студия «Кириллица»
Перевод: Профессиональный одноголосый
Продолжительность: ~ 00:43:37
Видеокодек: XVID
Битрейт видео: ~1451 kb/s
Размер кадра: 704 x 400
Качество видео: SATRip
Аудиокодек: MP3, 2ch.
Битрейт аудио: 128 kb/s

MediaInfo

Формат : AVI
Формат/Информация : Audio Video Interleave
Размер файла : 496 Мбайт
Продолжительность : 43 м.
Общий поток : 1589 Кбит/сек
Программа кодирования : VirtualDubMod 1.5.10.2 (build 2540/release)
Библиотека кодирования : VirtualDubMod build 2540/release
Видео
Идентификатор : 0
Формат : MPEG-4 Visual
Профиль формата : Advanced [email protected]
Параметр BVOP формата : 2
Параметр QPel формата : Нет
Параметр GMC формата : Без точки перехода
Параметр матрицы формата : Default (MPEG)
Идентификатор кодека : XVID
Идентификатор кодека/Подсказка : XviD
Продолжительность : 43 м.
Битрейт : 1451 Кбит/сек
Ширина : 704 пикселя
Высота : 400 пикселей
Соотношение сторон : 16:9
Частота кадров : 25,000 кадров/сек
Цветовое пространство : YUV
Субдискретизация насыщенности : 4:2:0
Битовая глубина : 8 бит
Тип развёртки : Прогрессивная
Метод сжатия : С потерями
Бит/(Пиксели*Кадры) : 0.206
Размер потока : 453 Мбайт (91%)
Библиотека кодирования : XviD 1.2.1 (UTC 2008-12-04)
Аудио
Идентификатор : 1
Формат : MPEG Audio
Версия формата : Version 1
Профиль формата : Layer 3
Идентификатор кодека : 55
Идентификатор кодека/Подсказка : MP3
Продолжительность : 43 м.
Вид битрейта : Постоянный
Битрейт : 128 Кбит/сек
Каналы : 2 канала
Частота : 48,0 КГц
Метод сжатия : С потерями
Размер потока : 39,9 Мбайт (8%)
Выравнивание : Соединение по промежуткам
Продолжительность промежутка : 40 мс. (1,00 видеокадр)
Время предзагрузки промежутка : 504 мс.
Библиотека кодирования : LAME3.98r
Настройки программы : -m s -V 4 -q 2 -lowpass 17 -b 128
Скриншоты:          
Other forum [Profile] [PM]
Display posts from previous:    
Reply to topic

The time now is: Today 23:10

All times are GMT + 3 Hours



You cannot post new topics in this forum
You cannot reply to topics in this forum
You cannot edit your posts in this forum
You cannot delete your posts in this forum
You cannot vote in polls in this forum
You cannot attach files in this forum
You cannot download files in this forum