Today is a free download without charge Download

Skillet - Rise (Live on Conan O'Brien Show 11.07.13) [2013, Alternative Rock, Christian Rock, HDTVRip 720p]

Reply to topic
 
Author
Message

Omen ®

Longevity: 8 years 4 months

Posts: 181087

Торрент-статистика

Post 03-Aug-2013 01:02

[Quote]

Skillet - Rise
(Live on Conan O'Brien Show 11.07.13)
- -Жанр:Alternative Rock, Christian Rock
Продолжительность: 00:04:21
Год выпуска: 2013
Качество: HDTVRip 720p
Контейнер: MKV
Видео кодек: H.264
Аудио кодек: AC3
Видео: AVC, 1280x720, (16:9), 4922 Kbps, Fps 60.000
Аудио: AC3, 448 Kbps, 48.0 KHz, 6 Ch
- -

Отчёт MediaInfo / BDInfo

E:\Skillet - Rise (Live on Conan O'Brien Show 11.07.13).mkv General Unique ID : 249516297313877246198131563325266986329 (0xBBB71742A9A85AB69EBFC3418E1A0559) Complete name : E:\Skillet - Rise (Live on Conan O'Brien Show 11.07.13).mkv Format : Matroska Format version : Version 2 File size : 171 MiB Duration : 4mn 21s Overall bit rate : 5 479 Kbps Encoded date : UTC 2013-07-13 06:29:35 Writing application : mkvmerge v4.0.0 ('The Stars were mine') ñáîðêà îò Jun 6 2010 16:18:42 Writing library : libebml v1.0.0 + libmatroska v1.0.0 Video #1 ID : 1 Format : AVC Format/Info : Advanced Video Codec Format profile : [email protected] Format settings, CABAC : Yes Format settings, ReFrames : 8 frames Codec ID : V_MPEG4/ISO/AVC Duration : 4mn 21s Bit rate : 4 922 Kbps Width : 1 280 pixels Height : 720 pixels Display aspect ratio : 16:9 Frame rate mode : Constant Frame rate : 60.000 fps Original frame rate : 59.940 fps Color space : YUV Chroma subsampling : 4:2:0 Bit depth : 8 bits Scan type : Progressive Bits/(Pixel*Frame) : 0.089 Stream size : 153 MiB (90%) Language : English Default : No Forced : No Matrix coefficients : BT.709 Audio #2 ID : 2 Format : AC-3 Format/Info : Audio Coding 3 Mode extension : CM (complete main) Format settings, Endianness : Big Codec ID : A_AC3 Duration : 4mn 21s Bit rate mode : Constant Bit rate : 448 Kbps Channel(s) : 6 channels Channel positions : Front: L C R, Side: L R, LFE Sampling rate : 48.0 KHz Bit depth : 16 bits Compression mode : Lossy Delay relative to video : 21ms Stream size : 14.0 MiB (8%) Default : No Forced : No

Скриншоты

Other forum [Profile] [PM]
Display posts from previous:    
Reply to topic

The time now is: Today 02:09

All times are GMT + 3 Hours



You cannot post new topics in this forum
You cannot reply to topics in this forum
You cannot edit your posts in this forum
You cannot delete your posts in this forum
You cannot vote in polls in this forum
You cannot attach files in this forum
You cannot download files in this forum