Today is a free download without charge Download

НАШЕСТВИЕ 2013: Brainstorm, LOUNA, АлисА, АРИЯ, Би-2, Браво (30 лет), Бригадный подряд, Кукрыниксы, Ляпис Трубецкой, ПилОт, Сансара, Слот, Смысловые галлюцинации, Чайф (HOLSTyak-video) [2013, Rock, Metal, Punk, Grange, Indi, HDCam 1080]

Reply to topic
 
Author
Message

Omen ®

Longevity: 8 years 3 months

Posts: 181087

Торрент-статистика

Post 03-Aug-2013 01:02

[Quote]

НАШЕСТВИЕ 2013
Жанр: Rock, Punk, Grange, Metal, Indi
Продолжительность: 10:04:20
Год выпуска: 2013
Описание: видео снято мной из 1-5 рядов фан-зоны главной сцены и ~15 ряда у малой сцены "НАШЕ 2.0"
Предпросмотр на YouTube - http://www.youtube.com/user/HOLSTyak/videos
Треклист:
* --- - места разрыва съёмки по видеофайлам
ГЛАВНАЯ СЦЕНА

Brainstorm (55:45) 05.07.2013

01. Ты не один (не с начала)
02. Только бы ты на меня посмотрела
03. Гори, гори ясно
04. Queen of england's treasure
05. Colder
06. Ветер ---
07. Чайки на крышах
08. На заре
09. Что ты тянешь?! ---
10. Выходные

Би-2 (1:48:17) 05.07.2013

01. Оптимист
02. Дурочка
03. Девушки
04. Революция
05. Молитва ---
06. Вечная призрачная встречная
07. Кукушка (В. Цой)
08. Серебро
09. Блеф ---
10. Сердце
11. Скользкие улицы (& Brainstorm)
12. Касаясь земли (& Brainstorm)
13. Варвара
---
14. Моя любовь
15. Безвоздушная тревога
16. Мой рок-н-ролл (& Настя Полева)
каверы под музыку песни "Мой рок-н-ролл" и песня Яна Николенко "Smile" ---
представление участников выступления
17. Последний герой
18. Полковнику никто не пишет

Браво - 30 лет (2:11:21) 05.07.2013

01. Жёлтые ботинки (инструментал)
02. Добрый вечер, Москва
03. Мода
04. Ветер знает
05. Если бы на Марсе
06. Вот и я
07. Нет предела ---
08. Полёт через Ла-Манш
09. Плохой, хороший, злой
10. Оранжевый галстук
11. Московский бит
12. Мне грустно и легко ---
13. Любите, девушки (lite)
14. Держись, пижон (lite)
15. Вася (lite)
16. Оранжевое Лето (lite)
17. Как жаль (lite)
18. Любовь не горит ---
19. Бег (New!)
20. Замок из песка
21. Это за окном рассвет
22. На лунный свет ---
23. Дорога в облака
24. От Таганки ло Кузьминок
представление участников выступления
25. Ленинградския рок-н-ролл
---
поклон группы
---
26. Старый отель
27. Этот город

АлисА (46:12) 06.07.2013

01. Мы вместе
02. Вот так
03. Рок
04. Смутные дни
05. Небо славян
06. Ангел ---
07. Ко мне
08. Работа
---
09. Левша
10. Фавор

Кукрыниксы (21:11) 06.07.2013

01. З.Л.О.
02. Солдатская печаль
03. Дороги
04. Хрустальный мир
05. Солдат
06. Не беда

АРИЯ (38:41) 06.07.2013

01. Пробил час
02. Раскачаем этот мир
03. Король дороги
04. Свобода
05. На службе силы зла ---
06. Улица роз
07. Дай жару

LOUNA (29:35) 06.07.2013

01. Гимн фестиваля Нашествие
02. Бойцовский клуб
03. Ночь, дорога и рок
04. Во мне
05. Мама ---
06. Сделай громче

ПилОт (36:03) 06.07.2013

01. Рок
02. Сибирь
03. Терроризм
04. Королевство
05. Любовь, истина и свет
06. Осень ---
07. Сумасшедшим жить легко
08. Мама

Чайф (49:54) 07.07.2013

01. От себя
02. Дом вверх дном
03. Зелёный пиджак
04. В её глазах
05. Ой-йо ---
06. Шаляй-валяй
07. Аргентина-Ямайка 5:0
08. 17 лет
09. Рок - мой выбор
10. Оранжевое настроение ---

Ляпис Трубецкой (31:54) 07.07.2013

01. Не быць скотам!
02. Капитал
03. Панас
04. Африка
05. Танцуй!
06. Рабкор
07. Манифест ---
08. Железный
09. Харэ

Смысловые галлюцинации (4:06) 07.07.2013

01. Чужое небо
Малая сцена "НАШЕ 2.0"

Сансара (17:40) 05.07.2013

01. Танцуем
02. Завтра
03. Чёлка
04. Я.л.ю.б.л.ю.т.е.б.я.
05. Облака

СЛОТ (13:49) 06.07.2013

01. Они убили Кенни
02. Доска
03. Мёртвые звёзды

Бригадный подряд (20:15) 06.07.2013

01. Питер рок-н-ролл
02. Уроки панк-рока
03. Жизнь
04. Веселиться, танцевать
05. Детская (Веточка кленовая)
06. Рив Гош
Качество: HDCam
Контейнер: MTS
Видео кодек: AVC
Аудио кодек: AC3
Видео: 1440х1080, 25 fps, ~11,4 mbps
Аудио: 48000Hz, 5.1ch, 448kbps

Отчёт MediaInfo / BDInfo

GeneralID : 0 (0x0)Complete name : E:\СЪЁМКА\НАШЕСТВИЕ-2013\РАЗДАЧА\НАШЕСТВИЕ-2013. HDcam by HOLSTyak-video\Малая сцена\05.07.2013\Сансара.MTSFormat : BDAVFormat/Info : Blu-ray VideoFile size : 1.54 GiBDuration : 17mn 40sOverall bit rate mode : VariableOverall bit rate : 12.5 MbpsMaximum Overall bit rate : 18.0 Mbps
VideoID : 4113 (0x1011)Menu ID : 1 (0x1)Format : AVCFormat/Info : Advanced Video CodecFormat profile : [email protected] settings, CABAC : YesFormat settings, ReFrames : 2 framesFormat settings, GOP : M=2, N=13Codec ID : 27Duration : 17mn 40sBit rate mode : VariableBit rate : 11.5 MbpsMaximum bit rate : 16.0 MbpsWidth : 1 440 pixelsHeight : 1 080 pixelsDisplay aspect ratio : 16:9Frame rate : 25.000 fpsColor space : YUVChroma subsampling : 4:2:0Bit depth : 8 bitsScan type : InterlacedScan order : Top Field FirstBits/(Pixel*Frame) : 0.296Stream size : 1.42 GiB (92%)
AudioID : 4352 (0x1100)Menu ID : 1 (0x1)Format : AC-3Format/Info : Audio Coding 3Mode extension : CM (complete main)Codec ID : 129Duration : 17mn 40sBit rate mode : ConstantBit rate : 448 KbpsChannel(s) : 6 channelsChannel positions : Front: L C R, Side: L R, LFESampling rate : 48.0 KHzBit depth : 16 bitsCompression mode : LossyDelay relative to video : -80msStream size : 56.7 MiB (4%)
TextID : 4608 (0x1200)Menu ID : 1 (0x1)Format : PGSCodec ID : 144Duration : 17mn 40sDelay relative to video : -80ms
Other forum [Profile] [PM]
Display posts from previous:    
Reply to topic

The time now is: Today 21:02

All times are GMT + 3 Hours



You cannot post new topics in this forum
You cannot reply to topics in this forum
You cannot edit your posts in this forum
You cannot delete your posts in this forum
You cannot vote in polls in this forum
You cannot attach files in this forum
You cannot download files in this forum