Today is a free download without charge Download

Мертвячка / Deadgirl (Марсель Сармиенто, Гади Хэрел) [2008 г., ужасы, триллер, BDRip 720p]

Reply to topic
 
Author
Message

Delia ®

Gender:

Longevity: 9 years 7 months

Posts: 1821

Торрент-статистика

Post 04-Sep-2011 23:41

[Quote]

Мертвячка / Deadgirl«You Never Forget Your First Time»--
Год выпуска: 2008
Страна: США
Жанр: ужасы, триллер, ...
Продолжительность: 01:41:36
Перевод: Любительский (двухголосый закадровый)
Субтитры: Russian (UTF-8), English (VobSub)
Режиссер: Марсель Сармиенто, Гади Хэрел
Сценарий: Трент Хаага
Продюсер: Гади Хэрел, Марсель Сармиенто, Брендан Дэвис, ...
Оператор: -
Композитор: Джозеф Бауэр
Художник: Диана Зенг, Линн Хаага
Монтаж: Филлип Блэкфорд- В ролях: Шайло Фернандез (Shiloh Fernandez), Ной Сеган (Noah Segan), Кэндис Аккола (Candice Accola), Эрик Поднар (Eric Podnar), Дженни Спэйн (Jenny Spain), Эндрю ДиПальма (Andrew DiPalma), Нолан Фанк (Nolan Funk), Майкл Боуэн (Michael Bowen), Дэвид Алан Граф (David Alan Graf), Сьюзэн Мари Келлер (Susan Marie Keller), Тимоти Мускателл (Timothy Muskatell), Келли Кентвелл (Kelle Cantwell), Дастин Хесс (Dustin Hess), Кэтлин М. Дарси (Kathleen M. Darcy), Стив Дин (Steve Dean), Кристина Мастерсон (Christina Masterson), Джин Августо (Gene Augusto), Джоди Бил (Jodi Beale), Кристина Блевинс (Christina Blevins), Richard Cassone
Описание: Два лучших друга, Рикки и Джей Ти, решили прогулять школу. Только заброшенная психиатрическая лечебница — не самое лучшее место для прогулок. Обнаружив в подвале труп девушки, они не стали вызывать полицию, что привело к самым неожиданным последствиям...-Рейтинг MPAA: -- --Качество: BDRip
Формат: MKV
Видео кодек: H.264 (AVC)
Аудио кодеk: AC3
Видео: 1280x544 (2.35:1), 23.976 fps, AVC, 5 199 Kbps
Аудио: Russian: AC3, 448 Kbps, 48.0 KHz, 6 ch (Любительский двухголосый )
Аудио #2:Russian: AC3, 192 Kbps, 44.1 KHz, 2 ch ( Любительский одноголосый [zamez])
Аудио #3: English:AC3, 320 Kbps, 48.0 KHz, 6 ch


МедиаИнфо

Код:
General
Complete name                    : Mertvjachka.2008.BDRip.(720p).mkv
Format                           : Matroska
File size                        : 4.37 GiB
Duration                         : 1h 41mn
Overall bit rate                 : 6 158 Kbps
Encoded date                     : UTC 2011-09-04 19:59:10
Writing application              : mkvmerge v4.9.1 ('Ich will') built on Jul 11 2011 23:53:15
Writing library                  : libebml v1.2.1 + libmatroska v1.1.1
Video
ID                               : 1
Format                           : AVC
Format/Info                      : Advanced Video Codec
Format profile                   : [email protected]
Format settings, CABAC           : Yes
Format settings, ReFrames        : 10 frames
Muxing mode                      : Container [email protected]
Codec ID                         : V_MPEG4/ISO/AVC
Duration                         : 1h 41mn
Bit rate                         : 5 199 Kbps
Width                            : 1 280 pixels
Height                           : 544 pixels
Display aspect ratio             : 2.35:1
Frame rate                       : 23.976 fps
Color space                      : YUV
Chroma subsampling               : 4:2:0
Bit depth                        : 8 bits
Scan type                        : Progressive
Bits/(Pixel*Frame)               : 0.311
Stream size                      : 3.60 GiB (82%)
Writing library                  : x264 core 116 r2074 2641b9e
Encoding settings                : cabac=1 / ref=10 / deblock=1:-3:-3 / analyse=0x3:0x133 / me=umh / subme=8 / psy=1 / psy_rd=1.00:0.25 / mixed_ref=1 / me_range=32 / chroma_me=1 / trellis=2 / 8x8dct=1 / cqm=0 / deadzone=21,11 / fast_pskip=0 / chroma_qp_offset=-4 / threads=6 / sliced_threads=0 / nr=0 / decimate=1 / interlaced=0 / bluray_compat=0 / constrained_intra=0 / bframes=7 / b_pyramid=2 / b_adapt=2 / b_bias=0 / direct=3 / weightb=1 / open_gop=0 / weightp=2 / keyint=250 / keyint_min=23 / scenecut=40 / intra_refresh=0 / rc_lookahead=50 / rc=2pass / mbtree=1 / bitrate=5199 / ratetol=1.0 / qcomp=0.80 / qpmin=10 / qpmax=55 / qpstep=4 / cplxblur=20.0 / qblur=0.5 / ip_ratio=1.40 / aq=1:1.00
Audio #1
ID                               : 2
Format                           : AC-3
Format/Info                      : Audio Coding 3
Mode extension                   : CM (complete main)
Codec ID                         : A_AC3
Duration                         : 1h 41mn
Bit rate mode                    : Constant
Bit rate                         : 448 Kbps
Channel(s)                       : 6 channels
Channel positions                : Front: L C R, Side: L R, LFE
Sampling rate                    : 48.0 KHz
Bit depth                        : 16 bits
Stream size                      : 326 MiB (7%)
Language                         : Russian
Audio #2
ID                               : 3
Format                           : AC-3
Format/Info                      : Audio Coding 3
Mode extension                   : CM (complete main)
Codec ID                         : A_AC3
Duration                         : 1h 41mn
Bit rate mode                    : Constant
Bit rate                         : 192 Kbps
Channel(s)                       : 2 channels
Channel positions                : Front: L R
Sampling rate                    : 44.1 KHz
Bit depth                        : 16 bits
Stream size                      : 140 MiB (3%)
Language                         : Russian
Audio #3
ID                               : 4
Format                           : AC-3
Format/Info                      : Audio Coding 3
Mode extension                   : CM (complete main)
Codec ID                         : A_AC3
Duration                         : 1h 41mn
Bit rate mode                    : Constant
Bit rate                         : 320 Kbps
Channel(s)                       : 6 channels
Channel positions                : Front: L C R, Side: L R, LFE
Sampling rate                    : 48.0 KHz
Bit depth                        : 16 bits
Stream size                      : 233 MiB (5%)
Text #1
ID                               : 5
Format                           : UTF-8
Codec ID                         : S_TEXT/UTF8
Codec ID/Info                    : UTF-8 Plain Text
Language                         : Russian
Text #2
ID                               : 6
Format                           : VobSub
Codec ID                         : S_VOBSUB
Codec ID/Info                    : The same subtitle format used on DVDs
Menu
00:00:00.000                     : en:00:00:00.000
00:04:54.836                     : en:00:04:54.836
00:10:43.268                     : en:00:10:43.268
00:18:08.337                     : en:00:18:08.337
00:23:56.060                     : en:00:23:56.060
00:29:59.297                     : en:00:29:59.297
00:36:03.661                     : en:00:36:03.661
00:40:37.894                     : en:00:40:37.894
00:46:50.808                     : en:00:46:50.808
00:51:38.804                     : en:00:51:38.804
00:57:14.431                     : en:00:57:14.431
01:06:15.597                     : en:01:06:15.597
01:11:59.273                     : en:01:11:59.273
01:17:03.285                     : en:01:17:03.285
01:21:36.934                     : en:01:21:36.934
01:27:34.916                     : en:01:27:34.916
01:35:30.934                     : en:01:35:30.934


Скриншоты:

     
     

_________________
Человек – это канат, натянутый между животным и сверхчеловеком, – канат над пропастью.
В человеке ценно то, что он мост, а не цель. Фридрих Ницше


Last edited by Delia on 2011-09-04 23:42; edited 1 time in total
Other forum [Profile] [PM]
Display posts from previous:    
Reply to topic

The time now is: Today 11:24

All times are GMT + 3 Hours



You cannot post new topics in this forum
You cannot reply to topics in this forum
You cannot edit your posts in this forum
You cannot delete your posts in this forum
You cannot vote in polls in this forum
You cannot attach files in this forum
You cannot download files in this forum