Today is a free download without charge Download

Widespread Panic's • Tunes For Tots 2011 Benefit Concert • Best Of [2013, Southern rock, Blues rock, HDTV 1080i]

Reply to topic
 
Author
Message

Omen ®

Longevity: 8 years 3 months

Posts: 181087

Торрент-статистика

Post 02-Aug-2013 20:58

[Quote]




Жанр: Southern rock, Blues rock
Продолжительность: 01:03:26
Год выпуска:
Original air date: 2012-01-29
Re-broadcast on AXS-TV on 2013-07-22
John Bell - Guitars & Vocals
Dave Schools - Bass
Todd Nance - Drums
Domingo "Sunny" Ortiz = Percussion
John "JoJo" Hermann - Keyboards

Треклист

01. A history of "Tunes for Tots"
02. Disco
03. Diner
04. Vacation
05. You Should Be Glad
06. Goin' Out West
07. Protein Drink
08. Sewing Machine
Качество: HDTV 1080i
Контейнер: TS
Видео кодек: MPEG2
Аудио кодек: AC3
Видео: MPEG2 Video 1920x1080 29.97fps 16.6 Mbps
Аудио: Dolby AC3 48000Hz 6ch 384kbps

Отчёт MediaInfo / BDInfo

GeneralID : 1 (0x1)Complete name : E:\Widespread Panic's Tunes for Tots 2011 Benefit Concert.tsFormat : MPEG-TSFile size : 7.91 GiBDuration : 1h 3mnOverall bit rate mode : VariableOverall bit rate : 17.9 Mbps
VideoID : 6081 (0x17C1)Menu ID : 1 (0x1)Format : MPEG VideoFormat version : Version 2Format profile : [email protected] settings, BVOP : NoFormat settings, Matrix : CustomFormat settings, GOP : M=3, N=15Codec ID : 2Duration : 1h 3mnBit rate mode : VariableBit rate : 16.6 MbpsMaximum bit rate : 65.0 MbpsWidth : 1 920 pixelsHeight : 1 080 pixelsDisplay aspect ratio : 16:9Frame rate : 29.970 fpsColor space : YUVChroma subsampling : 4:2:0Bit depth : 8 bitsScan type : InterlacedScan order : Top Field FirstCompression mode : LossyBits/(Pixel*Frame) : 0.267Time code of first frame : 00:00:00;00Time code source : Group of pictures headerStream size : 7.35 GiB (93%)
AudioID : 6083 (0x17C3)Menu ID : 1 (0x1)Format : AC-3Format/Info : Audio Coding 3Mode extension : CM (complete main)Format settings, Endianness : BigCodec ID : 129Duration : 1h 3mnBit rate mode : ConstantBit rate : 384 KbpsChannel(s) : 6 channelsChannel positions : Front: L C R, Side: L R, LFESampling rate : 48.0 KHzBit depth : 16 bitsCompression mode : LossyDelay relative to video : 32msStream size : 174 MiB (2%)Language : English
Other forum [Profile] [PM]
Display posts from previous:    
Reply to topic

The time now is: Today 13:47

All times are GMT + 3 Hours



You cannot post new topics in this forum
You cannot reply to topics in this forum
You cannot edit your posts in this forum
You cannot delete your posts in this forum
You cannot vote in polls in this forum
You cannot attach files in this forum
You cannot download files in this forum