Today is a free download without charge Download

(Pop) Татьяна Анциферова - Песни Александра Зацепина - 2003, MP3, 320 kbps

Reply to topic
 
Author
Message

sergej644 ®

Gender:

Longevity: 9 years 3 months

Posts: 656

Location: Klaipeda

Торрент-статистика

Post 02-Aug-2013 10:34

[Quote]

-Татьяна Анциферова - Песни Александра Зацепина- Страна: Россия
Жанр: Pop
Год выпуска: 2003
Формат: MP3
Битрейт аудио: 320 kbps
Продолжительность: 01:14:01


01. Чарльстон (04:20)
02. Звездный мост (03:58)
03. Любовь с первого взгляда (03:24)
04. Мир без любимого (04:12)
05. Ищу тебя (05:15)
06. Он пришёл этот добрый день (04:35)
07. Ну, чем она лучше (05:13)
08. Забывать нелегко (03:59)
09. Дело не в погоде (04:58)
10. Живу надеждой (04:01)
11. Зачем нужны нам чудеса (03:21)
12. Узнай меня (08:29)
13. Ты поверь, поверь (04:14)
14. Дни летят (05:57)
15. Опустевший дом (04:43)
16. Мы родом из детства (03:16)

MediaInfo

Код:
Общее
Полное имя                               : C:\music\Песни Александра Зацепина исполняет Татьяна Анциферова\(01) [Татьяна Анциферова] Чарльстон.mp3
Формат                                   : MPEG Audio
Размер файла                             : 10,1 Мбайт
Продолжительность                        : 4 м. 20 с.
Режим общего битрейта                    : Постоянный
Общий поток                              : 320 Кбит/сек
Альбом                                   : Песни Александра Зацепина
Трек                                     : Чарльстон
Трек/Положение                           : 01
Исполнитель                              : Татьяна Анциферова
Жанр                                     : Pop
Дата записи                              : 2003
Библиотека кодирования                   : LAME3.93
Обложка                                  : Yes
Тип обложки                              : Cover (front)
MIME-тип обложки                         : image/jpeg
Примечание                               : Exact Audio Copy
Аудио
Формат                                   : MPEG Audio
Версия формата                           : Version 1
Профиль формата                          : Layer 3
Режим                                    : Joint stereo
Продолжительность                        : 4 м. 20 с.
Вид битрейта                             : Постоянный
Битрейт                                  : 320 Кбит/сек
Каналы                                   : 2 канала
Частота                                  : 44,1 КГц
Метод сжатия                             : С потерями
Размер потока                            : 9,93 Мбайт (98%)
Библиотека кодирования                   : LAME3.93
Настройки программы                      : -m j -V 4 -q 0

*cue

Код:
REM GENRE "Pop"
REM DATE 2003
REM COMMENT "Exact Audio Copy"
TITLE "Песни Александра Зацепина"
FILE "(01) [Татьяна Анциферова] Чарльстон.mp3" WAVE
  TRACK 01 AUDIO
  PERFORMER "Татьяна Анциферова"
  TITLE "Чарльстон"
  INDEX 01 00:00:00
FILE "(02) [Татьяна Анциферова] Звездный мост.mp3" WAVE
  TRACK 02 AUDIO
  PERFORMER "Татьяна Анциферова"
  TITLE "Звездный мост"
  INDEX 01 00:00:00
FILE "(03) [Татьяна Анциферова] Любовь с первого взгляда.mp3" WAVE
  TRACK 03 AUDIO
  PERFORMER "Татьяна Анциферова"
  TITLE "Любовь с первого взгляда"
  INDEX 01 00:00:00
FILE "(04) [Татьяна Анциферова] Мир без любимого.mp3" WAVE
  TRACK 04 AUDIO
  PERFORMER "Татьяна Анциферова"
  TITLE "Мир без любимого"
  INDEX 01 00:00:00
FILE "(05) [Татьяна Анциферова] Ищу тебя.mp3" WAVE
  TRACK 05 AUDIO
  PERFORMER "Татьяна Анциферова"
  TITLE "Ищу тебя"
  INDEX 01 00:00:00
FILE "(06) [Татьяна Анциферова] Он пришёл этот добрый день.mp3" WAVE
  TRACK 06 AUDIO
  PERFORMER "Татьяна Анциферова"
  TITLE "Он пришёл этот добрый день"
  INDEX 01 00:00:00
FILE "(07) [Татьяна Анциферова] Ну, чем она лучше.mp3" WAVE
  TRACK 07 AUDIO
  PERFORMER "Татьяна Анциферова"
  TITLE "Ну, чем она лучше"
  INDEX 01 00:00:00
FILE "(08) [Татьяна Анциферова] Забывать нелегко.mp3" WAVE
  TRACK 08 AUDIO
  PERFORMER "Татьяна Анциферова"
  TITLE "Забывать нелегко"
  INDEX 01 00:00:00
FILE "(09) [Татьяна Анциферова] Дело не в погоде.mp3" WAVE
  TRACK 09 AUDIO
  PERFORMER "Татьяна Анциферова"
  TITLE "Дело не в погоде"
  INDEX 01 00:00:00
FILE "(10) [Татьяна Анциферова] Живу надеждой.mp3" WAVE
  TRACK 10 AUDIO
  PERFORMER "Татьяна Анциферова"
  TITLE "Живу надеждой"
  INDEX 01 00:00:00
FILE "(11) [Татьяна Анциферова] Зачем нужны нам чудеса.mp3" WAVE
  TRACK 11 AUDIO
  PERFORMER "Татьяна Анциферова"
  TITLE "Зачем нужны нам чудеса"
  INDEX 01 00:00:00
FILE "(12) [Татьяна Анциферова] Узнай меня.mp3" WAVE
  TRACK 12 AUDIO
  PERFORMER "Татьяна Анциферова"
  TITLE "Узнай меня"
  INDEX 01 00:00:00
FILE "(13) [Татьяна Анциферова] Ты поверь, поверь.mp3" WAVE
  TRACK 13 AUDIO
  PERFORMER "Татьяна Анциферова"
  TITLE "Ты поверь, поверь"
  INDEX 01 00:00:00
FILE "(14) [Татьяна Анциферова] Дни летят.mp3" WAVE
  TRACK 14 AUDIO
  PERFORMER "Татьяна Анциферова"
  TITLE "Дни летят"
  INDEX 01 00:00:00
FILE "(15) [Татьяна Анциферова] Опустевший дом.mp3" WAVE
  TRACK 15 AUDIO
  PERFORMER "Татьяна Анциферова"
  TITLE "Опустевший дом"
  INDEX 01 00:00:00
FILE "(16) [Татьяна Анциферова] Мы родом из детства.mp3" WAVE
  TRACK 16 AUDIO
  PERFORMER "Татьяна Анциферова"
  TITLE "Мы родом из детства"
  INDEX 01 00:00:00

_________________
У нас все платно: родиться, учиться, жениться, лечиться, умереть.
Бесплатно разрешено только работать.
Other forum [Profile] [PM]
Display posts from previous:    
Reply to topic

The time now is: Today 22:43

All times are GMT + 3 Hours



You cannot post new topics in this forum
You cannot reply to topics in this forum
You cannot edit your posts in this forum
You cannot delete your posts in this forum
You cannot vote in polls in this forum
You cannot attach files in this forum
You cannot download files in this forum