Today is a free download without charge Download

Kurenai no Buta / Porco Rosso / The Scarlet Pig / Crimson Pig / Порко Россо [1992, MV] BDRip 1080p Hi10p raw + rus x 6

Reply to topic
 
Author
Message

UndegraundMen ®

Longevity: 8 years 11 months

Posts: 25145

Торрент-статистика

Post 27-Jul-2013 23:05

[Quote]

Kurenai no Buta / Porco Rosso / The Scarlet Pig / Crimson Pig / Порко Россо- Год выпуска: 1992
Жанр: Приключения, История, Комедия
Тип: полнометражный фильм
Страна: Япония
Студия: Japan Airlines, Nibariki, Nippon Television Network, Studio Ghibli, TNNG, Toho Company, Tokuma Shoten-Описание:
Адриатика, двадцатые годы прошлого столетия. Итальянский пилот Марко Паготт храбро сражался в годы первой мировой войны. Однако после войны он разочаровался в военном деле, себе и людях, превратившись в самую настоящую свинью. В конце двадцатых, когда в Италии к власти пришли фашисты во главе с Муссолини, Марко, назвавший себя Порко Россо ("Малиновая свинья"), начал работать спасателем по найму в небе Адриатики. Его гидросамолет наводит ужас на воздушных пиратов, однако это не приносит Порко удовлетворения и душевного спокойствия...-Режиссер: Хаяо Миядзаки
Композитор: Джо Хисаиси
Художник: Катсу Хисамура, Ёшицу Хисамура
Монтаж: Хаяо Миядзаки, Такеши Сеяма
Продолжительность: 01:33:20
Качество видео: BDRip
Контейнер: MKV
Перевод: Дублированный, Многоголосый закадровый, Двухголосый закадровый, Авторский одноголосый
Язык субтитров: Русский
Вид субтитров: Вшитые- -Видеокодек: MPEG-4 AVC/H.264
Битрейт видео: ~12000 Кбит/с
Размер кадра: 1920x1040
Аудио: DTS-HD MA, 1555 Кбит/с(2ch), 48.0 KHz, 24 bits (Японский)
Аудио: AC3, 192 Кбит/с(2ch), 48.0 KHz, 16 bits (RUSCICO)
Аудио: AC3, 448 Кбит/с(2ch), 48.0 KHz, 16 bits (Tycoon)
Аудио: AC3, 192 Кбит/с(2ch), 48.0 KHz, 16 bits (А.Гаврилов)
Аудио: DTS-HD MA, 1558 Кбит/с(2ch), 48.0 KHz, 24 bits (Гланц & Королева)
Аудио: AC3, 192 Кбит/с(2ch), 48.0 KHz, 16 bits (Киномания)
Аудио: AC3, 192 Кбит/с(2ch), 48.0 KHz, 16 bits (А.Толстобров)-

MediaInfo

General
  • Unique ID : 180799877033734924824023114713081608268 (0x8804CA2A9224EF74B79787489FB0784C)
  • Complete name : Porco Rosso (1992)BDRip.1080p.mkv
  • Format : Matroska
  • File size : 11.4 GiB
  • Duration : 1h 33mn
  • Overall bit rate : 17.5 Mbps
  • Encoded date : UTC 2013-07-27 13:27:42
  • Writing application : mkvmerge v4.0.0 ('The Stars were mine') сборка от Jun 6 2010 16:18:42
  • Writing library : libebml v1.0.0 + libmatroska v1.0.0
  • Cover : Yes / Yes / Yes / Yes / Yes / Yes / Yes / Yes / Yes
    Video #1
  • ID : 1
  • Format : AVC
  • Format/Info : Advanced Video Codec
  • Format profile : High [url=mailto:[email protected]][email protected][/url]
  • Format settings, CABAC : Yes
  • Format settings, ReFrames : 4 frames
  • Codec ID : V_MPEG4/ISO/AVC
  • Duration : 1h 33mn
  • Bit rate : 12.8 Mbps
  • Nominal bit rate : 12.0 Mbps
  • Width : 1 920 pixels
  • Height : 1 040 pixels
  • Display aspect ratio : 16:9
  • Frame rate : 23.976 fps
  • Color space : YUV
  • Chroma subsampling : 4:2:0
  • Bit depth : 10 bits
  • Scan type : Progressive
  • Bits/(Pixel*Frame) : 0.268
  • Stream size : 8.37 GiB (73%)
  • Writing library : x264 core 129 r2245+729M 1a52e03
  • Encoding settings : cabac=1 / ref=3 / deblock=1:0:0 / analyse=0x3:0x113 / me=hex / subme=7 / psy=1 / fade_compensate=0.00 / psy_rd=1.00:0.00 / mixed_ref=1 / me_range=16 / chroma_me=1 / trellis=1 / 8x8dct=1 / cqm=0 / deadzone=21,11 / fast_pskip=1 / chroma_qp_offset=-2 / threads=6 / lookahead_threads=1 / sliced_threads=0 / nr=0 / decimate=1 / interlaced=0 / bluray_compat=0 / constrained_intra=0 / fgo=0 / bframes=3 / b_pyramid=2 / b_adapt=1 / b_bias=0 / direct=1 / weightb=1 / open_gop=0 / weightp=2 / keyint=240 / keyint_min=23 / scenecut=40 / intra_refresh=0 / rc_lookahead=40 / rc=2pass / mbtree=1 / bitrate=12000 / ratetol=1.0 / qcomp=0.60 / qpmin=0 / qpmax=81 / qpstep=4 / cplxblur=20.0 / qblur=0.5 / ip_ratio=1.40 / aq=1:1.00
  • Language : English
    Audio #2
  • ID : 2
  • Format : DTS
  • Format/Info : Digital Theater Systems
  • Format profile : MA / Core
  • Codec ID : A_DTS
  • Duration : 1h 33mn
  • Bit rate mode : Variable
  • Bit rate : 1 555 Kbps / 1 510 Kbps
  • Channel(s) : 2 channels
  • Channel positions : Front: L R
  • Sampling rate : 48.0 KHz
  • Bit depth : 24 bits
  • Compression mode : Lossless / Lossy
  • Language : Japanese
    Audio #3
  • ID : 3
  • Format : AC-3
  • Format/Info : Audio Coding 3
  • Mode extension : CM (complete main)
  • Codec ID : A_AC3
  • Duration : 1h 33mn
  • Bit rate mode : Constant
  • Bit rate : 192 Kbps
  • Channel(s) : 2 channels
  • Channel positions : Front: L R
  • Sampling rate : 48.0 KHz
  • Bit depth : 16 bits
  • Compression mode : Lossy
  • Stream size : 128 MiB (1%)
  • Title : RUSCICO
  • Language : Russian
    Audio #4
  • ID : 4
  • Format : AC-3
  • Format/Info : Audio Coding 3
  • Format profile : Dolby Digital
  • Mode extension : CM (complete main)
  • Codec ID : A_AC3
  • Duration : 1h 33mn
  • Bit rate mode : Constant
  • Bit rate : 448 Kbps
  • Channel(s) : 2 channels
  • Channel positions : Front: L R
  • Sampling rate : 48.0 KHz
  • Bit depth : 16 bits
  • Compression mode : Lossy
  • Stream size : 299 MiB (3%)
  • Title : Tycoon
  • Language : Russian
    Audio #5
  • ID : 5
  • Format : AC-3
  • Format/Info : Audio Coding 3
  • Mode extension : CM (complete main)
  • Codec ID : A_AC3
  • Duration : 1h 33mn
  • Bit rate mode : Constant
  • Bit rate : 192 Kbps
  • Channel(s) : 2 channels
  • Channel positions : Front: L R
  • Sampling rate : 48.0 KHz
  • Bit depth : 16 bits
  • Compression mode : Lossy
  • Stream size : 128 MiB (1%)
  • Title : А.Гаврилов
    Audio #6
  • ID : 6
  • Format : DTS
  • Format/Info : Digital Theater Systems
  • Format profile : MA / Core
  • Codec ID : A_DTS
  • Duration : 1h 33mn
  • Bit rate mode : Variable
  • Bit rate : 1 558 Kbps / 1 510 Kbps
  • Channel(s) : 2 channels
  • Channel positions : Front: L R
  • Sampling rate : 48.0 KHz
  • Bit depth : 24 bits
  • Compression mode : Lossless / Lossy
  • Title : Гланц & Королева
    Audio #7
  • ID : 7
  • Format : AC-3
  • Format/Info : Audio Coding 3
  • Mode extension : CM (complete main)
  • Codec ID : A_AC3
  • Duration : 1h 33mn
  • Bit rate mode : Constant
  • Bit rate : 192 Kbps
  • Channel(s) : 2 channels
  • Channel positions : Front: L R
  • Sampling rate : 48.0 KHz
  • Bit depth : 16 bits
  • Compression mode : Lossy
  • Stream size : 128 MiB (1%)
  • Title : Киномания
  • Language : Russian
    Audio #8
  • ID : 8
  • Format : AC-3
  • Format/Info : Audio Coding 3
  • Mode extension : CM (complete main)
  • Codec ID : A_AC3
  • Duration : 1h 33mn
  • Bit rate mode : Constant
  • Bit rate : 192 Kbps
  • Channel(s) : 2 channels
  • Channel positions : Front: L R
  • Sampling rate : 48.0 KHz
  • Bit depth : 16 bits
  • Compression mode : Lossy
  • Stream size : 128 MiB (1%)
  • Title : А.Толстобров
    Text #9
  • ID : 9
  • Format : ASS
  • Codec ID : S_TEXT/ASS
  • Codec ID/Info : Advanced Sub Station Alpha
  • Compression mode : Lossless
-Скриншоты:                -
Other forum [Profile] [PM]
Display posts from previous:    
Reply to topic

The time now is: Today 07:56

All times are GMT + 3 Hours



You cannot post new topics in this forum
You cannot reply to topics in this forum
You cannot edit your posts in this forum
You cannot delete your posts in this forum
You cannot vote in polls in this forum
You cannot attach files in this forum
You cannot download files in this forum